<?xml version="1.0" standalone="no"?>
<!--
Font Awesome Pro 5.8.0 by @fontawesome - https://fontawesome.com
License - https://fontawesome.com/license (Commercial License)
-->
<!DOCTYPE svg PUBLIC "-//W3C//DTD SVG 1.1//EN" "http://www.w3.org/Graphics/SVG/1.1/DTD/svg11.dtd" >
<svg xmlns="http://www.w3.org/2000/svg" xmlns:xlink="http://www.w3.org/1999/xlink" version="1.1">
<metadata>
Created by FontForge 20190112 at Tue Mar 19 17:20:00 2019
 By Robert Madole
Copyright (c) Font Awesome
</metadata>
<defs>
<font id="FontAwesome5Pro-Light" horiz-adv-x="512" >
  <font-face 
    font-family="Font Awesome 5 Pro Light"
    font-weight="300"
    font-stretch="normal"
    units-per-em="512"
    panose-1="2 0 3 3 0 0 0 0 0 0"
    ascent="448"
    descent="-64"
    bbox="-0.124756 -66.9502 672 448.15"
    underline-thickness="25"
    underline-position="-51"
    unicode-range="U+0020-F83E"
  />
    <missing-glyph />
    <glyph glyph-name="glass-martini" unicode="&#xf000;" 
d="M502.05 390.4l-230.05 -230.04v-192.36h53.3203c14.7295 0 26.6699 -11.9404 26.6699 -26.6699c0 -2.94043 -2.37988 -5.33008 -5.33008 -5.33008h-181.33c-2.94043 0 -5.33008 2.37988 -5.33008 5.33008c0 14.7295 11.9404 26.6699 26.6699 26.6699h53.3301v192.36
l-230.05 230.04c-21.25 21.2598 -6.2002 57.5996 23.8496 57.5996h444.4c30.0498 0 45.0996 -36.3398 23.8496 -57.5996zM256.06 189.67l162.33 162.33l61.0303 61.04c0.520508 0.509766 0.830078 0.820312 0.379883 1.88965
c-0.439453 1.07031 -0.879883 1.07031 -1.59961 1.07031h-444.4c-0.719727 0 -1.16016 0 -1.59961 -1.08008c-0.44043 -1.07031 -0.129883 -1.37988 0.379883 -1.88965z" />
    <glyph glyph-name="music" unicode="&#xf001;" 
d="M512 415.99l-0.00976562 -335.91c0 -0.0302734 0.00976562 -0.0498047 0.00976562 -0.0800781c0 -44.1797 -42.9805 -80 -96 -80s-96 35.8203 -96 80s42.9805 80 96 80c24.7002 0 46.9902 -7.99023 64 -20.7598v148.76l-288 -96v-176c0 -44.1797 -42.9805 -80 -96 -80
s-96 35.8203 -96 80s42.9805 80 96 80c24.7002 0 46.9902 -7.99023 64 -20.7598v244.76c0 14 8.70996 26.29 21.4199 30.4902l290.78 96c3.09961 1.0293 6.20996 1.50977 9.25 1.50977c16.2295 0 30.5498 -13.7402 30.5498 -32.0098zM96 -32c34.6904 0 64 21.9805 64 48
s-29.3096 48 -64 48s-64 -21.9805 -64 -48s29.3096 -48 64 -48zM480 321.73v93.6396l-288.55 -95.2598v-0.110352h0.549805v-94.2695zM416 32c34.6904 0 64 21.9805 64 48s-29.3096 48 -64 48s-64 -21.9805 -64 -48s29.3096 -48 64 -48z" />
    <glyph glyph-name="search" unicode="&#xf002;" 
d="M508.5 -33.5996c4.7002 -4.7002 4.7002 -12.3008 0 -17l-9.90039 -9.90039c-4.69922 -4.7002 -12.2998 -4.7002 -17 0l-129 129c-2.19922 2.2998 -3.5 5.2998 -3.5 8.5v10.2002c-37.0996 -34.2002 -86.5996 -55.2002 -141.1 -55.2002c-114.9 0 -208 93.0996 -208 208
s93.0996 208 208 208s208 -93.0996 208 -208c0 -54.5 -21 -104 -55.2998 -141.1h10.2998c3.2002 0 6.2002 -1.2002 8.5 -3.5zM208 64c97.2998 0 176 78.7002 176 176s-78.7002 176 -176 176s-176 -78.7002 -176 -176s78.7002 -176 176 -176z" />
    <glyph glyph-name="heart" unicode="&#xf004;" 
d="M462.3 385.3c62.7998 -53.5996 66.1006 -149.8 9.7002 -207.8l-193.5 -199.8c-6.2002 -6.5 -14.4004 -9.7002 -22.5996 -9.7002c-8.2002 0 -16.4004 3.2998 -22.6006 9.7002l-193.5 199.8c-56.2002 58 -52.8994 154.2 9.90039 207.8
c63.5 54 145.8 28.6006 186.6 -13.5996l19.7002 -20.2998l19.7002 20.3994c50.5996 52.2002 132.1 59.9004 186.6 13.5zM449.2 199.7c38.3994 39.7002 46.2998 115.2 -7.7002 161.2c-54.5996 46.5 -119.6 12.5 -142.8 -11.5l-42.7002 -44.1006l-42.7002 44.1006
c-23.5996 24.3994 -88 58.2998 -142.8 11.5c-54.0996 -46.1006 -46.0996 -121.601 -7.7002 -161.2l193.601 -199.8z" />
    <glyph glyph-name="star" unicode="&#xf005;" horiz-adv-x="576" 
d="M528.1 276.5c26.2002 -3.7998 36.7002 -36.0996 17.7002 -54.5996l-105.7 -103l25 -145.5c4.5 -26.3008 -23.1992 -45.9004 -46.3994 -33.7002l-130.7 68.7002l-130.7 -68.7002c-23.2002 -12.2998 -50.8994 7.39941 -46.3994 33.7002l25 145.5l-105.7 103
c-19 18.5 -8.5 50.7998 17.7002 54.5996l146.1 21.2998l65.2998 132.4c11.7998 23.8994 45.7002 23.5996 57.4004 0l65.2998 -132.4zM405.8 130.1l117.7 114.801l-162.7 23.5996l-72.7998 147.5l-72.7998 -147.5l-162.7 -23.5996l117.8 -114.9l-27.7998 -162l145.5 76.5
l145.6 -76.4004z" />
    <glyph glyph-name="user" unicode="&#xf007;" horiz-adv-x="448" 
d="M313.6 160c74.2002 0 134.4 -60.2002 134.4 -134.4v-41.5996c0 -26.5 -21.5 -48 -48 -48h-352c-26.5 0 -48 21.5 -48 48v41.5996c0 74.2002 60.2002 134.4 134.4 134.4c28.7998 0 42.5 -16 89.5996 -16s60.9004 16 89.5996 16zM416 -16v41.5996
c0 56.5 -45.9004 102.4 -102.4 102.4c-19.5996 0 -39.1992 -16 -89.5996 -16c-50.5 0 -70 16 -89.5996 16c-56.5 0 -102.4 -45.9004 -102.4 -102.4v-41.5996c0 -8.7998 7.2002 -16 16 -16h352c8.7998 0 16 7.2002 16 16zM224 192c-70.7002 0 -128 57.2998 -128 128
s57.2998 128 128 128s128 -57.2998 128 -128s-57.2998 -128 -128 -128zM224 416c-52.9004 0 -96 -43.0996 -96 -96s43.0996 -96 96 -96s96 43.0996 96 96s-43.0996 96 -96 96z" />
    <glyph glyph-name="film" unicode="&#xf008;" 
d="M488 384c13.2998 0 24 -10.7002 24 -24v-336c0 -13.2998 -10.7002 -24 -24 -24h-8v20c0 6.59961 -5.40039 12 -12 12h-40c-6.59961 0 -12 -5.40039 -12 -12v-20h-320v20c0 6.59961 -5.40039 12 -12 12h-40c-6.59961 0 -12 -5.40039 -12 -12v-20h-8
c-13.2998 0 -24 10.7002 -24 24v336c0 13.2998 10.7002 24 24 24h8v-20c0 -6.59961 5.40039 -12 12 -12h40c6.59961 0 12 5.40039 12 12v20h320v-20c0 -6.59961 5.40039 -12 12 -12h40c6.59961 0 12 5.40039 12 12v20h8zM96 76v40c0 6.59961 -5.40039 12 -12 12h-40
c-6.59961 0 -12 -5.40039 -12 -12v-40c0 -6.59961 5.40039 -12 12 -12h40c6.59961 0 12 5.40039 12 12zM96 172v40c0 6.59961 -5.40039 12 -12 12h-40c-6.59961 0 -12 -5.40039 -12 -12v-40c0 -6.59961 5.40039 -12 12 -12h40c6.59961 0 12 5.40039 12 12zM96 268v40
c0 6.59961 -5.40039 12 -12 12h-40c-6.59961 0 -12 -5.40039 -12 -12v-40c0 -6.59961 5.40039 -12 12 -12h40c6.59961 0 12 5.40039 12 12zM384 44v120c0 6.59961 -5.40039 12 -12 12h-232c-6.59961 0 -12 -5.40039 -12 -12v-120c0 -6.59961 5.40039 -12 12 -12h232
c6.59961 0 12 5.40039 12 12zM384 220v120c0 6.59961 -5.40039 12 -12 12h-232c-6.59961 0 -12 -5.40039 -12 -12v-120c0 -6.59961 5.40039 -12 12 -12h232c6.59961 0 12 5.40039 12 12zM480 76v40c0 6.59961 -5.40039 12 -12 12h-40c-6.59961 0 -12 -5.40039 -12 -12v-40
c0 -6.59961 5.40039 -12 12 -12h40c6.59961 0 12 5.40039 12 12zM480 172v40c0 6.59961 -5.40039 12 -12 12h-40c-6.59961 0 -12 -5.40039 -12 -12v-40c0 -6.59961 5.40039 -12 12 -12h40c6.59961 0 12 5.40039 12 12zM480 268v40c0 6.59961 -5.40039 12 -12 12h-40
c-6.59961 0 -12 -5.40039 -12 -12v-40c0 -6.59961 5.40039 -12 12 -12h40c6.59961 0 12 5.40039 12 12z" />
    <glyph glyph-name="th-large" unicode="&#xf009;" 
d="M0 368c0 26.5098 21.4902 48 48 48h416c26.5098 0 48 -21.4902 48 -48v-352c0 -26.5098 -21.4902 -48 -48 -48h-416c-26.5098 0 -48 21.4902 -48 48v352zM240 384h-192c-8.83691 0 -16 -7.16309 -16 -16v-160h208v176zM32 16c0 -8.83691 7.16309 -16 16 -16h192v176h-208
v-160zM272 0h192c8.83691 0 16 7.16309 16 16v160h-208v-176zM480 208v160c0 8.83691 -7.16309 16 -16 16h-192v-176h208z" />
    <glyph glyph-name="th" unicode="&#xf00a;" 
d="M0 368c0 26.5098 21.4902 48 48 48h416c26.5098 0 48 -21.4902 48 -48v-352c0 -26.5098 -21.4902 -48 -48 -48h-416c-26.5098 0 -48 21.4902 -48 48v352zM320 384h-128v-106.667h128v106.667zM480 138.667v106.666h-128v-106.666h128zM320 138.667v106.666h-128v-106.666
h128zM32 245.333v-106.667h128v106.667h-128zM160 384h-112c-8.83691 0 -16 -7.16309 -16 -16v-90.667h128v106.667zM32 16c0 -8.83691 7.16309 -16 16 -16h112v106.667h-128v-90.667zM192 0h128v106.667h-128v-106.667zM352 0h112c8.83691 0 16 7.16309 16 16v90.667h-128
v-106.667zM480 277.333v90.667c0 8.83691 -7.16309 16 -16 16h-112v-106.667h128z" />
    <glyph glyph-name="th-list" unicode="&#xf00b;" 
d="M0 368c0 26.5098 21.4902 48 48 48h416c26.5098 0 48 -21.4902 48 -48v-352c0 -26.5098 -21.4902 -48 -48 -48h-416c-26.5098 0 -48 21.4902 -48 48v352zM480 368c0 8.83691 -7.16309 16 -16 16h-272v-106.667h288v90.667zM480 138.667v106.666h-288v-106.666h288z
M32 245.333v-106.667h128v106.667h-128zM160 384h-112c-8.83691 0 -16 -7.16309 -16 -16v-90.667h128v106.667zM32 16c0 -8.83691 7.16309 -16 16 -16h112v106.667h-128v-90.667zM192 0h272c8.83691 0 16 7.16309 16 16v90.667h-288v-106.667z" />
    <glyph glyph-name="check" unicode="&#xf00c;" horiz-adv-x="448" 
d="M413.505 356.049c4.68652 4.68652 12.2842 4.68652 16.9697 0l11.3145 -11.3135c4.68555 -4.6875 4.68555 -12.2852 0 -16.9717l-299.813 -299.812c-4.68652 -4.68652 -12.2842 -4.68652 -16.9707 0l-118.794 118.794c-4.68555 4.68652 -4.68555 12.2852 0 16.9707
l11.3135 11.3135c4.68652 4.68555 12.2842 4.68555 16.9707 0l98.9951 -98.9951z" />
    <glyph glyph-name="times" unicode="&#xf00d;" horiz-adv-x="320" 
d="M193.94 192l123.71 -123.71c3.11914 -3.12012 3.11914 -8.19043 0 -11.3096l-22.6309 -22.6309c-3.11914 -3.11914 -8.18945 -3.11914 -11.3096 0l-21.1504 21.1504l-102.56 102.56l-123.72 -123.71c-3.12012 -3.11914 -8.19043 -3.11914 -11.3105 0l-22.6299 22.6309
c-3.12012 3.11914 -3.12012 8.18945 0 11.3096l123.72 123.71l-123.72 123.72c-3.12012 3.12012 -3.12012 8.19043 0 11.3105l22.6406 22.6299c3.11914 3.12012 8.18945 3.12012 11.3096 0l123.71 -123.72l123.71 123.71c3.12012 3.11914 8.19043 3.11914 11.3096 0
l22.6309 -22.6309c3.11914 -3.11914 3.11914 -8.18945 0 -11.3096l-21.1504 -21.1504z" />
    <glyph glyph-name="search-plus" unicode="&#xf00e;" 
d="M319.8 244v-8c0 -6.59961 -5.39941 -12 -12 -12h-84v-84c0 -6.59961 -5.39941 -12 -12 -12h-8c-6.59961 0 -12 5.40039 -12 12v84h-84c-6.59961 0 -12 5.40039 -12 12v8c0 6.59961 5.40039 12 12 12h84v84c0 6.59961 5.40039 12 12 12h8c6.60059 0 12 -5.40039 12 -12
v-84h84c6.60059 0 12 -5.40039 12 -12zM508.3 -49l-11.2998 -11.2998c-4.7002 -4.7002 -12.2998 -4.7002 -17 0l-129 129c-2.2998 2.2998 -3.5 5.2998 -3.5 8.5v8.5c-36.9004 -33.4004 -85.7998 -53.7002 -139.5 -53.7002c-114.2 0 -206.5 91.0996 -208 205.3
c-1.5 117 93.7002 212.2 210.7 210.7c114.2 -1.5 205.3 -93.7998 205.3 -208c0 -53.7002 -20.2998 -102.6 -53.7002 -139.5h8.5c3.2002 0 6.2002 -1.2998 8.5 -3.5l129 -129c4.7002 -4.7002 4.7002 -12.2998 0 -17zM384 240c0 97.2998 -78.7002 176 -176 176
s-176 -78.7002 -176 -176s78.7002 -176 176 -176s176 78.7002 176 176z" />
    <glyph glyph-name="search-minus" unicode="&#xf010;" 
d="M307.8 224.2h-200c-6.59961 0 -12 5.39941 -12 12v8c0 6.59961 5.40039 12 12 12h200c6.60059 0 12 -5.40039 12 -12v-8c0 -6.60059 -5.39941 -12 -12 -12zM508.3 -49l-11.2998 -11.2998c-4.7002 -4.7002 -12.2998 -4.7002 -17 0l-129 129
c-2.2998 2.2998 -3.5 5.2998 -3.5 8.5v8.5c-36.9004 -33.4004 -85.7998 -53.7002 -139.5 -53.7002c-114.2 0 -206.5 91.0996 -208 205.3c-1.5 117 93.7002 212.2 210.7 210.7c114.2 -1.5 205.3 -93.7998 205.3 -208c0 -53.7002 -20.2998 -102.6 -53.7002 -139.5h8.5
c3.2002 0 6.2002 -1.2998 8.5 -3.5l129 -129c4.7002 -4.7002 4.7002 -12.2998 0 -17zM384 240c0 97.2998 -78.7002 176 -176 176s-176 -78.7002 -176 -176s78.7002 -176 176 -176s176 78.7002 176 176z" />
    <glyph glyph-name="power-off" unicode="&#xf011;" 
d="M388.5 401.7c69.4004 -44 115.5 -121.5 115.5 -209.7c0 -136.8 -110.8 -247.7 -247.5 -248c-136.5 -0.299805 -248.3 111 -248.5 247.6c-0.0996094 88.4004 46 166.101 115.5 210.101c5.7998 3.7002 13.5 1.7998 16.9004 -4.2002l3.89941 -7
c3.10059 -5.59961 1.2998 -12.5996 -4.09961 -16c-60.2998 -38.5 -100.2 -106.1 -100.2 -182.5c0 -119.9 97.2998 -216 216 -216c119.9 0 216 97.2998 216 216c0 77 -40.0996 144.2 -100.3 182.4c-5.40039 3.39941 -7.2002 10.5 -4.10059 16l3.90039 7
c3.40039 6.09961 11.2002 7.89941 17 4.2998zM272 172c0 -6.59961 -5.40039 -12 -12 -12h-8c-6.59961 0 -12 5.40039 -12 12v264c0 6.59961 5.40039 12 12 12h8c6.59961 0 12 -5.40039 12 -12v-264z" />
    <glyph glyph-name="signal" unicode="&#xf012;" horiz-adv-x="640" 
d="M208 160c4.41992 0 8 -3.58008 8 -8v-208c0 -4.41992 -3.58008 -8 -8 -8h-32c-4.41992 0 -8 3.58008 -8 8v208c0 4.41992 3.58008 8 8 8h32zM80 64c4.41992 0 8 -3.58008 8 -8v-112c0 -4.41992 -3.58008 -8 -8 -8h-32c-4.41992 0 -8 3.58008 -8 8v112
c0 4.41992 3.58008 8 8 8h32zM336 256c4.41992 0 8 -3.58008 8 -8v-304c0 -4.41992 -3.58008 -8 -8 -8h-32c-4.41992 0 -8 3.58008 -8 8v304c0 4.41992 3.58008 8 8 8h32zM464 352c4.41992 0 8 -3.58008 8 -8v-400c0 -4.41992 -3.58008 -8 -8 -8h-32
c-4.41992 0 -8 3.58008 -8 8v400c0 4.41992 3.58008 8 8 8h32zM592 448c4.41992 0 8 -3.58008 8 -8v-496c0 -4.41992 -3.58008 -8 -8 -8h-32c-4.41992 0 -8 3.58008 -8 8v496c0 4.41992 3.58008 8 8 8h32z" />
    <glyph glyph-name="cog" unicode="&#xf013;" 
d="M482.696 148.724c9.57617 -5.52832 14.1943 -16.9014 11.0459 -27.501c-11.2139 -37.748 -31.1748 -71.7275 -57.5352 -99.5947c-7.63379 -8.07129 -19.8174 -9.83691 -29.4375 -4.2832l-32.5615 18.7979c-10.8281 -8.23926 -29.7959 -19.2061 -42.3389 -24.4785
v-37.6143c0 -11.1309 -7.65332 -20.8037 -18.4844 -23.3672c-37.6514 -8.90918 -77.125 -8.9082 -114.77 0c-10.832 2.56348 -18.4844 12.2373 -18.4844 23.3672v37.6143c-12.5439 5.27246 -31.5117 16.2383 -42.3389 24.4785l-32.5615 -18.7979
c-9.62012 -5.55273 -21.8037 -3.78711 -29.4375 4.2832c-26.3604 27.8672 -46.3213 61.8467 -57.5352 99.5947c-3.14844 10.5996 1.46973 21.9736 11.0459 27.501l32.6104 18.8271c-0.848633 6.72168 -1.53711 17.6748 -1.53711 24.4502
c0 6.77441 0.688477 17.7275 1.53711 24.4492l-32.6104 18.8271c-9.57617 5.52832 -14.1943 16.9014 -11.0459 27.501c11.2139 37.748 31.1748 71.7275 57.5352 99.5947c7.63281 8.07031 19.8164 9.83594 29.4375 4.28223l32.5615 -18.7979
c10.8271 8.24023 29.7949 19.207 42.3389 24.4795v37.6143c0 11.1309 7.65332 20.8037 18.4844 23.3672c37.6514 8.90918 77.126 8.9082 114.77 0c10.832 -2.56348 18.4844 -12.2373 18.4844 -23.3672v-37.6143c12.543 -5.27246 31.5107 -16.2393 42.3389 -24.4795
l32.5615 18.7979c9.62012 5.55371 21.8037 3.78809 29.4375 -4.28223c26.3604 -27.8672 46.3213 -61.8457 57.5352 -99.5947c3.14844 -10.5996 -1.46973 -21.9736 -11.0459 -27.501l-32.6104 -18.8271c0.848633 -6.72168 1.53711 -17.6748 1.53711 -24.4492
c0 -6.77539 -0.688477 -17.7285 -1.53711 -24.4502zM417.217 48.2627c19.71 22.0889 34.6895 47.9893 43.9297 75.957l-46.3291 26.7402c6.53809 35.4346 6.53516 46.6533 0 82.0791l46.3291 26.7402c-9.24023 27.9697 -24.2207 53.8701 -43.9297 75.9688l-46.3086 -26.7598
c-27.374 23.4316 -37.0615 29.0635 -71.0391 41.0684v53.4795c-11.9814 2.47559 -31.6348 4.48438 -43.8691 4.48438s-31.8877 -2.00879 -43.8691 -4.48438v-53.4785c-33.9756 -12.0039 -43.6621 -17.6348 -71.0391 -41.0684l-46.3086 26.7598
c-19.709 -22.0996 -34.6895 -48 -43.9297 -75.9688l46.3291 -26.7402c-6.53809 -35.4346 -6.53418 -46.6621 0 -82.0791l-46.3291 -26.7402c9.24023 -27.9688 24.2197 -53.8682 43.9297 -75.958l46.3086 26.7402c27.6846 -23.6641 37.418 -29.1797 71.0391 -41.0586
v-53.4795c11.9814 -2.47168 31.6348 -4.47754 43.8691 -4.47754s31.8877 2.00586 43.8691 4.47754v53.4795c34.4795 12.1826 44.0508 17.9873 71.0391 41.0586zM256 288c52.9346 0 96 -43.0654 96 -96s-43.0654 -96 -96 -96s-96 43.0654 -96 96s43.0654 96 96 96zM256 128
c35.29 0 64 28.71 64 64s-28.71 64 -64 64s-64 -28.71 -64 -64s28.71 -64 64 -64z" />
    <glyph glyph-name="home" unicode="&#xf015;" horiz-adv-x="576" 
d="M541 218.84c1.65137 -1.3252 2.99121 -4.12012 2.99121 -6.2373c0 -1.56348 -0.797852 -3.81738 -1.78125 -5.03223l-10.0996 -12.4102c-1.32617 -1.62891 -4.10547 -2.95117 -6.20605 -2.95117c-1.56738 0 -3.82715 0.802734 -5.04395 1.79102l-40.8604 33.3799v-243.05
c0 -8.83203 -7.16797 -16 -16 -16l-128 -0.330078c-8.83203 0 -16 7.16797 -16 16v128.08l-64 0.299805v-128c0 -8.83203 -7.16797 -16 -16 -16h-128c-8.83203 0 -16 7.16797 -16 16v243l-40.8604 -33.3799c-1.20996 -0.96875 -3.44922 -1.75488 -4.99902 -1.75488
c-2.09766 0 -4.875 1.31934 -6.2002 2.94531l-10.1006 12.4092c-0.985352 1.21582 -1.78613 3.47363 -1.78613 5.03906c0 2.09766 1.32031 4.87598 2.94629 6.20117l232.81 190.021c4.87891 3.93359 13.9238 7.12695 20.1904 7.12695s15.3115 -3.19336 20.1904 -7.12695
l139.81 -114.12v51.3301c0 3.31152 2.68848 6 6 6h20c3.31152 0 6 -2.68848 6 -6v-77.4004zM447.89 0.25l0.110352 253.24l-160 130.569l-160 -130.569v-253.24h95.9902v128.14v0c0 8.83203 7.16797 16 16 16h0.0498047l96 -0.269531
c8.77734 -0.0546875 15.9229 -7.22266 15.9502 -16v-128.17l96 0.299805h-0.100586z" />
    <glyph glyph-name="clock" unicode="&#xf017;" 
d="M256 440c137 0 248 -111 248 -248s-111 -248 -248 -248s-248 111 -248 248s111 248 248 248zM472 192c0 119.9 -97.2998 216 -216 216c-119.9 0 -216 -97.2998 -216 -216c0 -119.9 97.2998 -216 216 -216c119.9 0 216 97.2998 216 216zM323.1 103.7l-81.1992 59
c-3.10059 2.2998 -4.90039 5.89941 -4.90039 9.7002v159.6c0 6.59961 5.40039 12 12 12h14c6.59961 0 12 -5.40039 12 -12v-146.3l70.5 -51.2998c5.40039 -3.90039 6.5 -11.4004 2.59961 -16.8008l-8.19922 -11.2998c-3.90039 -5.2998 -11.4004 -6.5 -16.8008 -2.59961z" />
    <glyph glyph-name="road" unicode="&#xf018;" horiz-adv-x="576" 
d="M279.47 256c-5.80957 0 -10.3496 6.16992 -9.73926 13.2598l3.75 43.5801c0.349609 4.07031 3.14941 7.16016 6.48926 7.16016h16.0498c3.34082 0 6.14062 -3.08984 6.49023 -7.16016l3.75 -43.5801c0.620117 -7.08984 -3.91992 -13.2598 -9.72949 -13.2598h-17.0605z
M273.45 144c-7.75 0 -13.79 8.23047 -12.9697 17.6797l4.12988 48c0.699219 8.14062 6.2998 14.3203 12.9795 14.3203h20.8301c6.67969 0 12.2803 -6.17969 12.9805 -14.3203l4.12988 -48c0.80957 -9.44922 -5.23047 -17.6797 -12.9805 -17.6797h-29.0996zM284.11 352
c-3.87988 0 -6.90039 4.12012 -6.49023 8.83984l1.37988 16c0.349609 4.07031 3.15039 7.16016 6.49023 7.16016h5.0293c3.34082 0 6.14062 -3.08984 6.49023 -7.16016l1.37988 -16c0.410156 -4.71973 -2.60938 -8.83984 -6.48926 -8.83984h-7.79004zM308.06 112
c6.68066 0 12.2803 -6.17969 12.9707 -14.3203l6.88965 -80c0.810547 -9.44922 -5.22949 -17.6797 -12.9795 -17.6797h-53.8906c-7.75 0 -13.79 8.23047 -12.9795 17.6797l6.88965 80c0.700195 8.14062 6.2998 14.3203 12.9805 14.3203h40.1191zM157.35 384
c5.33008 0 9.16992 -5.12012 7.68066 -10.2402l-105.65 -362.24c-1.99023 -6.8291 -8.25 -11.5195 -15.3604 -11.5195h-28c-11.4199 0 -19.1592 11.6201 -14.7695 22.1504l148.72 356.93c1.13086 2.71582 4.43555 4.91992 7.37695 4.91992h0.00292969zM574.75 22.1504
c4.40039 -10.5303 -3.34961 -22.1504 -14.7598 -22.1504h-28h-0.00292969c-6.62402 0 -13.5039 5.16113 -15.3574 11.5195l-105.649 362.24c-1.49023 5.12012 2.34961 10.2402 7.67969 10.2402c2.94141 -0.000976562 6.24707 -2.20508 7.37988 -4.91992z" />
    <glyph glyph-name="download" unicode="&#xf019;" 
d="M452 16c0 -11 -9 -20 -20 -20s-20 9 -20 20s9 20 20 20s20 -9 20 -20zM368 36c11 0 20 -9 20 -20s-9 -20 -20 -20s-20 9 -20 20s9 20 20 20zM512 84v-104c0 -24.2998 -19.7002 -44 -44 -44h-424c-24.2998 0 -44 19.7002 -44 44v104c0 24.2998 19.7002 44 44 44h99.4004
l-56.4004 56.4004c-25.2002 25.1992 -7.2998 68.2998 28.2998 68.2998h52.7002v155.3c0 22.0996 17.9004 40 40 40h96c22.0996 0 40 -17.9004 40 -40v-155.3h52.7002c35.5996 0 53.3994 -43.1006 28.2998 -68.2998l-56.4004 -56.4004h99.4004c24.2998 0 44 -19.7002 44 -44z
M250.3 66.2998c3.10059 -3.09961 8.2002 -3.09961 11.2998 0l140.7 140.7c5 5 1.5 13.7002 -5.7002 13.7002h-84.5996v187.3c0 4.40039 -3.59961 8 -8 8h-96c-4.40039 0 -8 -3.59961 -8 -8v-187.3h-84.7002c-7.09961 0 -10.7002 -8.60059 -5.7002 -13.7002zM480 84
c0 6.59961 -5.40039 12 -12 12h-131.4l-52.2998 -52.2998c-15.5996 -15.6006 -41 -15.6006 -56.5996 0l-52.2998 52.2998h-131.4c-6.59961 0 -12 -5.40039 -12 -12v-104c0 -6.59961 5.40039 -12 12 -12h424c6.59961 0 12 5.40039 12 12v104z" />
    <glyph glyph-name="inbox" unicode="&#xf01c;" horiz-adv-x="576" 
d="M566.819 220.623c5.06738 -6.96777 9.18066 -19.6152 9.18066 -28.2314v-0.000976562v-144.391c0 -26.5098 -21.4902 -48 -48 -48h-480c-26.5098 0 -48 21.4902 -48 48v144.391v0.000976562c0 8.61621 4.11328 21.2637 9.18066 28.2314l104.443 143.609
c7.93555 10.9111 25.3262 19.7676 38.8184 19.7676h0.000976562h271.113c13.4932 0 30.8848 -8.85645 38.8203 -19.7676zM139.503 345.411l-88.2988 -121.411h136.573l32 -64h136.445l32 64h136.573l-88.2979 121.411c-3.00098 4.12598 -7.83789 6.58887 -12.9404 6.58887
h-271.114c-4.49414 -0.00683594 -10.291 -2.95898 -12.9404 -6.58887zM544 176c0 8.83691 -7.16309 16 -16 16h-120l-32 -64h-176l-32 64h-120c-8.83691 0 -16 -7.16309 -16 -16v-128c0 -8.82324 7.17773 -16 16 -16h480c8.82227 0 16 7.17676 16 16v128z" />
    <glyph glyph-name="redo" unicode="&#xf01e;" 
d="M492 440c6.62695 0 12 -5.37305 12 -12v-160c0 -6.62695 -5.37305 -12 -12 -12h-160c-6.62695 0 -12 5.37305 -12 12v10c0 6.62695 5.37305 12 12 12h114.289c-35.5518 68.9229 -107.427 116 -190.289 116c-118.669 0 -214 -96.2559 -214 -214
c0 -118.669 96.2559 -214 214 -214c55.0654 0 105.218 20.7617 143.109 54.8643c4.73242 4.25977 11.9785 4.04883 16.4814 -0.454102l7.06934 -7.06934c4.87207 -4.87207 4.63086 -12.8145 -0.482422 -17.4326c-43.9756 -39.7217 -102.252 -63.9082 -166.178 -63.9082
c-136.834 0 -247.786 110.819 -248 247.604c-0.212891 136.388 110.82 247.969 247.207 248.396c91.5537 0.286133 171.597 -49.0459 214.793 -122.624v110.625c0 6.62695 5.37305 12 12 12h10z" />
    <glyph glyph-name="sync" unicode="&#xf021;" 
d="M492 440c6.62695 0 12 -5.37305 12 -12v-160c0 -6.62695 -5.37305 -12 -12 -12h-160c-6.62695 0 -12 5.37305 -12 12v10c0 6.62695 5.37305 12 12 12h114.289c-35.5518 68.9229 -107.427 116 -190.289 116c-114.903 0 -207.843 -90.2158 -213.706 -202.707
c-0.331055 -6.34375 -5.62402 -11.293 -11.9766 -11.293h-10.0166c-6.82617 0 -12.3301 5.68945 -11.9912 12.5068c6.51465 131.155 114.918 235.493 247.69 235.493c91.2236 0 170.929 -49.2607 214 -122.627v110.627c0 6.62695 5.37305 12 12 12h10zM491.699 192
c6.82617 0 12.3301 -5.68945 11.9912 -12.5068c-6.51465 -131.155 -114.917 -235.493 -247.69 -235.493c-91.2227 0 -170.929 49.2607 -214 122.627v-110.627c0 -6.62695 -5.37305 -12 -12 -12h-10c-6.62695 0 -12 5.37305 -12 12v160c0 6.62695 5.37305 12 12 12h160
c6.62695 0 12 -5.37305 12 -12v-10c0 -6.62695 -5.37305 -12 -12 -12h-114.299c35.627 -69.0479 107.69 -116 190.299 -116c114.546 0 207.841 89.8418 213.707 202.707c0.330078 6.34375 5.625 11.293 11.9766 11.293h10.0156z" />
    <glyph glyph-name="list-alt" unicode="&#xf022;" 
d="M464 384h-416c-8.82324 0 -16 -7.17773 -16 -16v-352c0 -8.82227 7.17676 -16 16 -16h416c8.82324 0 16 7.17773 16 16v352c0 8.82227 -7.17676 16 -16 16zM464 416c26.5098 0 48 -21.4902 48 -48v-352c0 -26.5098 -21.4902 -48 -48 -48h-416
c-26.5098 0 -48 21.4902 -48 48v352c0 26.5098 21.4902 48 48 48h416zM128 320c17.6729 0 32 -14.3271 32 -32s-14.3271 -32 -32 -32s-32 14.3271 -32 32s14.3271 32 32 32zM128 224c17.6729 0 32 -14.3271 32 -32s-14.3271 -32 -32 -32s-32 14.3271 -32 32
s14.3271 32 32 32zM128 128c17.6729 0 32 -14.3271 32 -32s-14.3271 -32 -32 -32s-32 14.3271 -32 32s14.3271 32 32 32zM416 276c0 -3.31152 -2.68848 -6 -6 -6h-212c-3.31152 0 -6 2.68848 -6 6v24c0 3.31152 2.68848 6 6 6h212c3.31152 0 6 -2.68848 6 -6v-24zM416 180
c0 -3.31152 -2.68848 -6 -6 -6h-212c-3.31152 0 -6 2.68848 -6 6v24c0 3.31152 2.68848 6 6 6h212c3.31152 0 6 -2.68848 6 -6v-24zM416 84c0 -3.31152 -2.68848 -6 -6 -6h-212c-3.31152 0 -6 2.68848 -6 6v24c0 3.31152 2.68848 6 6 6h212c3.31152 0 6 -2.68848 6 -6v-24z
" />
    <glyph glyph-name="lock" unicode="&#xf023;" horiz-adv-x="448" 
d="M400 224c26.5 0 48 -21.5 48 -48v-192c0 -26.5 -21.5 -48 -48 -48h-352c-26.5 0 -48 21.5 -48 48v192c0 26.5 21.5 48 48 48h16v64c0 88.4004 72 160.3 160.5 160c88.4004 -0.299805 159.5 -73.0996 159.5 -161.5v-62.5h16zM96 288v-64h256v64
c0 70.5996 -57.4004 128 -128 128s-128 -57.4004 -128 -128zM400 -32c8.7998 0 16 7.2002 16 16v192c0 8.7998 -7.2002 16 -16 16h-352c-8.7998 0 -16 -7.2002 -16 -16v-192c0 -8.7998 7.2002 -16 16 -16h352z" />
    <glyph glyph-name="flag" unicode="&#xf024;" 
d="M344.348 373.333c47.2676 0 96.75 19.8223 133.53 36.9062c15.916 7.3916 34.1221 -4.21094 34.1221 -21.7607v-261.667c0 -7.9502 -3.9248 -15.4092 -10.5137 -19.8594c-38.0752 -25.7148 -78.6982 -42.9531 -130.009 -42.9531
c-69.9238 0 -115.22 34.667 -171.825 34.667c-63.5859 0 -104.229 -14.5254 -135.652 -29.0645v-121.602c0 -6.62695 -5.37305 -12 -12 -12h-8c-6.62695 0 -12 5.37305 -12 12v406.742c-19.4473 6.87598 -33.1465 25.918 -31.9238 47.9863
c1.35645 24.5215 21.4561 44.2725 45.9951 45.2334c29.7363 1.16504 53.4814 -24.6748 49.4854 -54.4111c23.29 9.12695 48.4785 14.4492 76.9658 14.4492c69.9238 0 115.22 -34.667 171.825 -34.667zM48 420c-11.0283 0 -20 -8.97168 -20 -20s8.97168 -20 20 -20
s20 8.97168 20 20s-8.97168 20 -20 20zM480 130.667v245.333c-33.4346 -15.8535 -89.7324 -34.667 -135.652 -34.667c-63.5791 0 -108.211 34.667 -171.825 34.667c-43.9746 0 -85.4053 -17.9707 -108.522 -34.667v-236.666c33.373 15.8145 89.6357 26 135.652 26
c63.5791 0 108.211 -34.667 171.825 -34.667c43.9746 0 85.4053 17.9697 108.522 34.667z" />
    <glyph glyph-name="headphones" unicode="&#xf025;" 
d="M256 416c141.503 0 256 -114.518 256 -256v-51.4277c0 -5.19043 -3.67969 -11.4521 -8.21289 -13.9785l-23.8037 -13.2617c0.00488281 -0.444336 0.0166016 -0.886719 0.0166016 -1.33203c0 -61.8564 -50.1436 -112 -112 -112h-24c-13.2549 0 -24 10.7451 -24 24v176
c0 13.2549 10.7451 24 24 24h24c49.6758 0 91.79 -32.3428 106.453 -77.1172l5.54688 3.08984v42.0273c0 123.816 -100.204 224 -224 224c-123.816 0 -224 -100.205 -224 -224v-42.0273l5.54688 -3.09082c14.6631 44.7754 56.7783 77.1182 106.453 77.1182h24
c13.2549 0 24 -10.7451 24 -24v-176c0 -13.2549 -10.7451 -24 -24 -24h-24c-61.8564 0 -112 50.1436 -112 112c0 0.445312 0.0117188 0.887695 0.0166016 1.33105l-23.8037 13.2617c-4.5332 2.52637 -8.21289 8.78906 -8.21289 13.9785v51.4287
c0 141.503 114.517 256 256 256zM144 160c-44.1123 0 -80 -35.8877 -80 -80s35.8877 -80 80 -80h16v160h-16zM368 0c44.1123 0 80 35.8877 80 80s-35.8877 80 -80 80h-16v-160h16z" />
    <glyph glyph-name="volume-off" unicode="&#xf026;" horiz-adv-x="256" 
d="M231.81 384c12.3301 0 24.1904 -9.49023 24.1904 -24v-336c0 -14.4805 -11.8604 -24 -24.1904 -24h-0.0888672c-5.42383 0 -12.915 3.13574 -16.7207 7l-88.9404 89h-102.06c-13.248 0 -24 10.752 -24 24v144c0 13.248 10.752 24 24 24h102.03l89 89
c3.80176 3.86426 11.2871 7 16.708 7h0.0712891zM224 43.3301v297.34l-84.6904 -84.6699h-107.31v-128h107.31z" />
    <glyph glyph-name="volume-down" unicode="&#xf027;" horiz-adv-x="384" 
d="M342.91 253.43c25.3398 -12.1396 41.0898 -36.0693 41.0898 -62.4297s-15.75 -50.2803 -41.0898 -62.4199c-7.7998 -3.79004 -17.4805 -0.549805 -21.3398 7.5c-3.81055 7.95996 -0.44043 17.5303 7.5293 21.3398c14.1201 6.78027 22.9004 19.6396 22.9004 33.5801
s-8.78027 26.7998 -22.9004 33.5898c-7.96973 3.81055 -11.3398 13.3701 -7.5293 21.3398c3.83984 7.98047 13.5293 11.3008 21.3398 7.5zM231.81 383c12.3203 0 24.1904 -9.50977 24.1904 -24.0195v-335.961c0 -14.5 -11.8604 -24.0195 -24.1904 -24.0195
c-5.89941 0 -11.9092 2.17969 -16.7793 7.0498l-88.9707 88.9502h-102.06c-13.2598 0 -24 10.75 -24 24v144c0 13.2598 10.7402 24 24 24h102.06l88.9707 88.9502c4.85938 4.87012 10.8701 7.0498 16.7793 7.0498zM224 42.3301v297.34l-84.6904 -84.6699h-107.31v-128
h107.31z" />
    <glyph glyph-name="volume-up" unicode="&#xf028;" horiz-adv-x="576" 
d="M342.91 254.43c25.3398 -12.1396 41.0898 -36.0693 41.0898 -62.4297s-15.75 -50.2803 -41.0898 -62.4199c-7.7998 -3.79004 -17.4805 -0.549805 -21.3398 7.5c-3.81055 7.95996 -0.44043 17.5303 7.5293 21.3398c14.1201 6.78027 22.9004 19.6396 22.9004 33.5801
s-8.78027 26.7998 -22.9004 33.5898c-7.96973 3.81055 -11.3398 13.3701 -7.5293 21.3398c3.83984 7.98047 13.5293 11.3008 21.3398 7.5zM231.81 384c12.3203 0 24.1904 -9.50977 24.1904 -24.0195v-335.961c0 -14.5 -11.8604 -24.0195 -24.1904 -24.0195
c-5.89941 0 -11.9092 2.17969 -16.7793 7.0498l-88.9707 88.9502h-102.06c-13.2598 0 -24 10.75 -24 24v144c0 13.2598 10.7402 24 24 24h102.06l88.9707 88.9502c4.85938 4.87012 10.8701 7.0498 16.7793 7.0498zM224 43.3301v297.34l-84.6904 -84.6699h-107.31v-128
h107.31zM421.51 446.17c95.2705 -50.0996 154.49 -147.49 154.49 -254.16c0 -106.68 -59.2197 -204.069 -154.49 -254.16c-7.97949 -4.13965 -17.5596 -1.0498 -21.6602 6.7002c-4.12988 7.81055 -1.11914 17.5 6.7002 21.6104c84.7598 44.5498 137.4 131.1 137.4 225.85
s-52.6406 181.3 -137.4 225.851c-7.83008 4.10938 -10.8301 13.7998 -6.7002 21.6094c4.13086 7.82031 13.7705 10.7803 21.6602 6.7002zM480 192.01c0 -66.1299 -34.0195 -126.63 -88.8096 -157.87c-7.98047 -4.5498 -17.7402 -1.48926 -22.04 5.89062
c-4.44043 7.66016 -1.76074 17.4395 5.95996 21.8594c44.7695 25.54 72.6094 75.4004 72.6094 130.12c0 54.7207 -27.8398 104.57 -72.6094 130.12c-7.73047 4.41992 -10.4102 14.2002 -5.95996 21.8604c4.44922 7.66992 14.3496 10.2695 22.04 5.88965
c54.79 -31.25 88.8096 -91.75 88.8096 -157.87z" />
    <glyph glyph-name="qrcode" unicode="&#xf029;" horiz-adv-x="448" 
d="M0 224v192h192v-192h-192zM32 384v-128h128v128h-128zM256 416h192v-192h-192v192zM416 256v128h-128v-128h128zM0 -32v192h192v-192h-192zM32 128v-128h128v128h-128zM64 352h64v-64h-64v64zM384 288h-64v64h64v-64zM64 96h64v-64h-64v64zM416 160h32v-128h-128v32h-32
v-96h-32v192h96v-32h64v32zM416 0h32v-32h-32v32zM352 0h32v-32h-32v32z" />
    <glyph glyph-name="barcode" unicode="&#xf02a;" 
d="M0 0v384h18v-384h-18zM26.8574 0.273438v383.727h9.14258v-383.727h-9.14258zM54 0.273438v383.727h8.85742v-383.727h-8.85742zM98.8574 0.273438v383.727h8.85645v-383.727h-8.85645zM134.857 0.273438v383.727h17.7139v-383.727h-17.7139zM179.714 0.273438v383.727
h8.85742v-383.727h-8.85742zM197.714 0.273438v383.727h8.85742v-383.727h-8.85742zM215.714 0.273438v383.727h8.85742v-383.727h-8.85742zM251.429 0.273438v383.727h18v-383.727h-18zM296.286 0.273438v383.727h18v-383.727h-18zM332.285 0.273438v383.727h18.001
v-383.727h-18.001zM368.286 0.273438v383.727h18.001v-383.727h-18.001zM395.143 0.273438v383.727h18v-383.727h-18zM440.286 0.273438v383.727h26.8564v-383.727h-26.8564zM476 0.273438v383.727h9.14258v-383.727h-9.14258zM494 0v384h18v-384h-18z" />
    <glyph glyph-name="tag" unicode="&#xf02b;" 
d="M497.941 222.059c18.7441 -18.7441 18.7441 -49.1367 0 -67.8818l-204.118 -204.118c-18.7451 -18.7451 -49.1377 -18.7441 -67.8818 0l-211.883 211.883c-7.75977 7.75977 -14.0586 22.9658 -14.0586 33.9404v204.118c0 26.5098 21.4902 48 48 48h204.118
c10.9746 0 26.1807 -6.29883 33.9404 -14.0586zM475.314 176.804c6.2373 6.23828 6.2373 16.3896 0 22.6279l-211.883 211.883c-3.02148 3.02148 -7.04004 4.68555 -11.3135 4.68555h-204.118c-8.82227 0 -16 -7.17773 -16 -16v-204.117v-0.0439453
c0 -3.64844 2.09961 -8.69727 4.68555 -11.2695l211.884 -211.884c6.25195 -6.25293 16.3838 -6.24219 22.627 0zM144 324c-11.0283 0 -20 -8.97168 -20 -20s8.97168 -20 20 -20s20 8.97168 20 20s-8.97168 20 -20 20zM144 352c26.5098 0 48 -21.4902 48 -48
s-21.4902 -48 -48 -48s-48 21.4902 -48 48s21.4902 48 48 48z" />
    <glyph glyph-name="tags" unicode="&#xf02c;" horiz-adv-x="640" 
d="M625.941 154.177l-204.118 -204.118c-18.7461 -18.7451 -49.1387 -18.7441 -67.8818 0l-1.77539 1.77539l22.627 22.627l1.77539 -1.77539c6.25293 -6.25293 16.3838 -6.24219 22.627 0l204.118 204.118c6.2373 6.23926 6.2373 16.3896 0 22.627l-211.883 211.884
c-2.57227 2.58594 -7.62109 4.68555 -11.2695 4.68555h-0.0439453h-19.5488l-32 32h51.5488c10.9746 0 26.1807 -6.29883 33.9404 -14.0586l211.883 -211.883c18.7451 -18.7441 18.7451 -49.1367 0.000976562 -67.8818zM252.118 416h-204.118
c-8.82227 0 -16 -7.17773 -16 -16v-204.118c0 -4.27344 1.66406 -8.29199 4.68555 -11.3135l211.883 -211.883c6.25293 -6.25293 16.3838 -6.24219 22.627 0l204.118 204.118c6.2373 6.23926 6.2373 16.3896 0 22.627l-211.883 211.884
c-2.57227 2.58594 -7.62109 4.68555 -11.2695 4.68555h-0.0429688zM252.118 448c10.9746 0 26.1807 -6.29883 33.9404 -14.0586l211.883 -211.883c18.7441 -18.7441 18.7441 -49.1367 0 -67.8818l-204.118 -204.118c-18.7461 -18.7451 -49.1387 -18.7441 -67.8818 0
l-211.883 211.883c-7.75977 7.75977 -14.0586 22.9658 -14.0586 33.9404v204.118c0 26.5098 21.4902 48 48 48h204.118zM144 324c-11.0283 0 -20 -8.97168 -20 -20s8.97168 -20 20 -20s20 8.97168 20 20s-8.97168 20 -20 20zM144 352c26.5098 0 48 -21.4902 48 -48
s-21.4902 -48 -48 -48s-48 21.4902 -48 48s21.4902 48 48 48z" />
    <glyph glyph-name="book" unicode="&#xf02d;" horiz-adv-x="448" 
d="M356 288h-168c-6.59961 0 -12 5.40039 -12 12v8c0 6.59961 5.40039 12 12 12h168c6.59961 0 12 -5.40039 12 -12v-8c0 -6.59961 -5.40039 -12 -12 -12zM368 236c0 -6.59961 -5.40039 -12 -12 -12h-168c-6.59961 0 -12 5.40039 -12 12v8c0 6.59961 5.40039 12 12 12h168
c6.59961 0 12 -5.40039 12 -12v-8zM432.7 -32h3.2998c6.59961 0 12 -5.40039 12 -12v-8c0 -6.59961 -5.40039 -12 -12 -12h-356c-44.2002 0 -80 35.7998 -80 80v352c0 44.2002 35.7998 80 80 80h344c13.2998 0 24 -10.7002 24 -24v-368
c0 -10 -6.2002 -18.5996 -14.9004 -22.2002c-3.59961 -16.0996 -4.39941 -45.5996 -0.399414 -65.7998zM128 64h288v352h-288v-352zM32 48c13.4004 10 30 16 48 16h16v352h-16c-26.5 0 -48 -21.5 -48 -48v-320zM404.3 -32c-3.09961 20.4004 -2.89941 45.2002 0 64h-324.3
c-64 0 -64 -64 0 -64h324.3z" />
    <glyph glyph-name="bookmark" unicode="&#xf02e;" horiz-adv-x="384" 
d="M336 448c26.5098 0 48 -21.4902 48 -48v-464l-192 112l-192 -112v464c0 26.5098 21.4902 48 48 48h288zM352 -8.28711v408.287c0 8.82227 -7.17773 16 -16 16h-288c-8.82227 0 -16 -7.17773 -16 -16v-408.287l160 93.333z" />
    <glyph glyph-name="print" unicode="&#xf02f;" 
d="M432 256c44.1797 0 80 -35.8203 80 -80v-96c0 -8.83984 -7.16016 -16 -16 -16h-80v-112c0 -8.83984 -7.16016 -16 -16 -16h-288c-8.83984 0 -16 7.16016 -16 16v112h-80c-8.83984 0 -16 7.16016 -16 16v96c0 44.1797 35.8203 80 80 80h16v160
c0 17.6699 13.6396 32 30.4805 32h180.26c8.49023 0 16.6299 -3.37012 22.6299 -9.37012l77.2598 -77.25c6 -6.00977 9.37012 -14.1396 9.37012 -22.6299v-82.75h16zM320 402.75v-50.75h50.75zM128.12 416l-0.100586 -160h255.98v64h-64c-17.6699 0 -32 14.3301 -32 32v64
h-159.88zM384 -32v96h-256v-96h256zM480 96v80c0 26.4697 -21.5303 48 -48 48h-352c-26.4697 0 -48 -21.5303 -48 -48v-80h448zM400 184c13.25 0 24 -10.7402 24 -24c0 -13.25 -10.75 -24 -24 -24s-24 10.75 -24 24c0 13.2598 10.75 24 24 24z" />
    <glyph glyph-name="camera" unicode="&#xf030;" 
d="M324.3 384h-131c-6.7002 0 -12.7002 -4.2002 -15 -10.4004l-20.0996 -53.5996h-110.2c-8.7998 0 -16 -7.2002 -16 -16v-288c0 -8.7998 7.2002 -16 16 -16h416c8.7998 0 16 7.2002 16 16v288c0 8.7998 -7.2002 16 -16 16h-110.1l-22.1006 58.7998
c-1.2002 3.10059 -4.2002 5.2002 -7.5 5.2002zM324.3 416c16.7002 0 31.6006 -10.2998 37.4004 -26l14.2998 -38h88c26.5 0 48 -21.5 48 -48v-288c0 -26.5 -21.5 -48 -48 -48h-416c-26.5 0 -48 21.5 -48 48v288c0 26.5 21.5 48 48 48h88l12.4004 32.9004
c7 18.6992 24.8994 31.0996 44.8994 31.0996h131zM256 40c-66.2002 0 -120 53.7998 -120 120s53.7998 120 120 120s120 -53.7998 120 -120s-53.7998 -120 -120 -120zM256 248c-48.5 0 -88 -39.5 -88 -88s39.5 -88 88 -88s88 39.5 88 88s-39.5 88 -88 88z" />
    <glyph glyph-name="font" unicode="&#xf031;" horiz-adv-x="448" 
d="M232.594 416c4.59473 0 9.62988 -3.49316 11.2393 -7.7959l152.694 -408.204h23.4727c6.62695 0 12 -5.37305 12 -12v-8c0 -6.62695 -5.37305 -12 -12 -12h-88c-6.62695 0 -12 5.37305 -12 12v8c0 6.62695 5.37305 12 12 12h28.0635l-45.2461 120.46h-182.253
l-44.6514 -120.46h28.0869c6.62695 0 12 -5.37305 12 -12v-8c0 -6.62695 -5.37305 -12 -12 -12h-88c-6.62695 0 -12 5.37305 -12 12v8c0 6.62695 5.37305 12 12 12h23.4727l152.695 408.204c1.60938 4.30371 6.64355 7.7959 11.2383 7.7959h0.000976562h17.1865z
M144.636 152.66h158.113l-75.0977 201.286c-1.49219 3.83789 -2.70117 7.79297 -3.65137 11.3818c-0.954102 -3.60059 -2.16797 -7.57031 -3.66797 -11.4268z" />
    <glyph glyph-name="bold" unicode="&#xf032;" horiz-adv-x="320" 
d="M249.139 205.872c42.665 -15.1504 70.8613 -59.0264 70.8613 -111.522c0 -52.5967 -27.8018 -98.1309 -70.8271 -116.002c-21.8711 -9.1709 -47.5586 -10.3477 -67.4932 -10.3477h-169.68c-6.62695 0 -12 5.37305 -12 12v8c0 6.62695 5.37305 12 12 12h19.9502v384
h-19.9502c-6.62695 0 -12 5.37305 -12 12v8c0 6.62695 5.37305 12 12 12h164.01c31.4678 0 56.5508 -5.50488 76.6846 -16.8301c30.166 -16.8369 49.665 -55.1289 49.665 -97.5498c0 -42.2451 -19.2988 -76.7598 -53.2207 -95.748zM66.041 383.799v-164.359h120.679
c48.0244 0 80.2891 33.2783 80.2891 82.8096c0 30.3213 -12.2617 55.4189 -33.6416 68.8584c-13.6631 8.53906 -32.4277 12.6914 -57.3574 12.6914h-109.969zM233.235 8.11426c32.2148 13.0088 51.415 44.7666 51.415 84.9746c0 56.3145 -37.8369 94.1514 -94.1514 94.1514
h-124.458v-187.04h115.639c22.1064 0 38.9707 2.58887 51.5557 7.91406z" />
    <glyph glyph-name="italic" unicode="&#xf033;" horiz-adv-x="256" 
d="M102.791 384c-7.57812 0 -13.2588 6.93848 -11.7637 14.3682l1.60938 8c1.07031 5.31641 6.34082 9.63184 11.7646 9.63184h129.447c7.57812 0 13.2598 -6.93848 11.7637 -14.3682l-1.61035 -8c-1.07031 -5.31641 -6.34082 -9.63184 -11.7637 -9.63184h-50.0117
l-74.8633 -384h45.2148c7.57812 0 13.2588 -6.93848 11.7637 -14.3682l-1.60938 -8c-1.07031 -5.31641 -6.34082 -9.63184 -11.7646 -9.63184h-128.816c-7.57812 0 -13.2598 6.93848 -11.7637 14.3682l1.61035 8c1.07031 5.31641 6.34082 9.63184 11.7637 9.63184h49.3809
l74.8633 384h-45.2148z" />
    <glyph glyph-name="text-height" unicode="&#xf034;" horiz-adv-x="448" 
d="M0 332v72c0 6.62695 5.37305 12 12 12h264c6.62695 0 12 -5.37305 12 -12v-72c0 -6.62695 -5.37305 -12 -12 -12h-8.48047c-6.62695 0 -12 5.37305 -12 12v52h-94.9648v-384h43.4453c6.62695 0 12 -5.37305 12 -12v-8c0 -6.62695 -5.37305 -12 -12 -12h-120
c-6.62695 0 -12 5.37305 -12 12v8c0 6.62695 5.37305 12 12 12h43.4443v384h-94.9639v-52c0 -6.62695 -5.37305 -12 -12 -12h-8.48047c-6.62695 0 -12 5.37305 -12 12zM393.87 413.123c3.19824 3.83789 9.09375 3.83398 12.2861 0l39.9844 -48.001
c4.29102 -5.15137 0.698242 -13.1221 -6.14258 -13.1221h-23.998v-320h23.9717c7.53906 0 10.1162 -8.35156 6.14355 -13.1221l-39.9844 -48.001c-3.19824 -3.83789 -9.09375 -3.83301 -12.2871 0l-39.9844 48.001c-4.29102 5.15137 -0.698242 13.1221 6.14258 13.1221
h23.998v320h-23.9697c-7.54004 0 -10.1162 8.35156 -6.14453 13.1221z" />
    <glyph glyph-name="text-width" unicode="&#xf035;" horiz-adv-x="448" 
d="M0 332v72c0 6.62695 5.37305 12 12 12h424c6.62695 0 12 -5.37305 12 -12v-72c0 -6.62695 -5.37305 -12 -12 -12h-8.48047c-6.62695 0 -12 5.37305 -12 12v52h-174.964v-256h43.4443c6.62695 0 12 -5.37305 12 -12v-8c0 -6.62695 -5.37305 -12 -12 -12h-120
c-6.62695 0 -12 5.37305 -12 12v8c0 6.62695 5.37305 12 12 12h43.4443v256h-174.964v-52c0 -6.62695 -5.37305 -12 -12 -12h-8.48047c-6.62695 0 -12 5.37305 -12 12zM445.123 22.1299c3.83789 -3.19824 3.83398 -9.09375 0 -12.2861l-48.001 -39.9844
c-5.15137 -4.29102 -13.1221 -0.698242 -13.1221 6.14258v23.998h-320v-23.9707c0 -7.53906 -8.35156 -10.1162 -13.1221 -6.14355l-48.001 39.9844c-3.83789 3.19824 -3.83301 9.09375 0 12.2871l48.001 39.9834c5.15137 4.29102 13.1221 0.698242 13.1221 -6.14258
v-23.998h320v23.9707c0 7.53906 8.35156 10.1162 13.1221 6.14355z" />
    <glyph glyph-name="align-left" unicode="&#xf036;" horiz-adv-x="448" 
d="M288 396v-24c0 -3.31152 -2.68848 -6 -6 -6h-276c-3.31152 0 -6 2.68848 -6 6v24c0 3.31152 2.68848 6 6 6h276c3.31152 0 6 -2.68848 6 -6zM6 238c-3.31152 0 -6 2.68848 -6 6v24c0 3.31152 2.68848 6 6 6h436c3.31152 0 6 -2.68848 6 -6v-24
c0 -3.31152 -2.68848 -6 -6 -6h-436zM6 -18c-3.31152 0 -6 2.68848 -6 6v24c0 3.31152 2.68848 6 6 6h436c3.31152 0 6 -2.68848 6 -6v-24c0 -3.31152 -2.68848 -6 -6 -6h-436zM282 146c3.31152 0 6 -2.68848 6 -6v-24c0 -3.31152 -2.68848 -6 -6 -6h-276
c-3.31152 0 -6 2.68848 -6 6v24c0 3.31152 2.68848 6 6 6h276z" />
    <glyph glyph-name="align-center" unicode="&#xf037;" horiz-adv-x="448" 
d="M352 396v-24c0 -3.31152 -2.68848 -6 -6 -6h-244c-3.31152 0 -6 2.68848 -6 6v24c0 3.31152 2.68848 6 6 6h244c3.31152 0 6 -2.68848 6 -6zM6 238c-3.31152 0 -6 2.68848 -6 6v24c0 3.31152 2.68848 6 6 6h436c3.31152 0 6 -2.68848 6 -6v-24
c0 -3.31152 -2.68848 -6 -6 -6h-436zM6 -18c-3.31152 0 -6 2.68848 -6 6v24c0 3.31152 2.68848 6 6 6h436c3.31152 0 6 -2.68848 6 -6v-24c0 -3.31152 -2.68848 -6 -6 -6h-436zM346 146c3.31152 0 6 -2.68848 6 -6v-24c0 -3.31152 -2.68848 -6 -6 -6h-244
c-3.31152 0 -6 2.68848 -6 6v24c0 3.31152 2.68848 6 6 6h244z" />
    <glyph glyph-name="align-right" unicode="&#xf038;" horiz-adv-x="448" 
d="M160 372v24c0 3.31152 2.68848 6 6 6h276c3.31152 0 6 -2.68848 6 -6v-24c0 -3.31152 -2.68848 -6 -6 -6h-276c-3.31152 0 -6 2.68848 -6 6zM6 238c-3.31152 0 -6 2.68848 -6 6v24c0 3.31152 2.68848 6 6 6h436c3.31152 0 6 -2.68848 6 -6v-24
c0 -3.31152 -2.68848 -6 -6 -6h-436zM6 -18c-3.31152 0 -6 2.68848 -6 6v24c0 3.31152 2.68848 6 6 6h436c3.31152 0 6 -2.68848 6 -6v-24c0 -3.31152 -2.68848 -6 -6 -6h-436zM166 110c-3.31152 0 -6 2.68848 -6 6v24c0 3.31152 2.68848 6 6 6h276
c3.31152 0 6 -2.68848 6 -6v-24c0 -3.31152 -2.68848 -6 -6 -6h-276z" />
    <glyph glyph-name="align-justify" unicode="&#xf039;" horiz-adv-x="448" 
d="M0 372v24c0 3.31152 2.68848 6 6 6h436c3.31152 0 6 -2.68848 6 -6v-24c0 -3.31152 -2.68848 -6 -6 -6h-436c-3.31152 0 -6 2.68848 -6 6zM6 238c-3.31152 0 -6 2.68848 -6 6v24c0 3.31152 2.68848 6 6 6h436c3.31152 0 6 -2.68848 6 -6v-24
c0 -3.31152 -2.68848 -6 -6 -6h-436zM6 -18c-3.31152 0 -6 2.68848 -6 6v24c0 3.31152 2.68848 6 6 6h436c3.31152 0 6 -2.68848 6 -6v-24c0 -3.31152 -2.68848 -6 -6 -6h-436zM6 110c-3.31152 0 -6 2.68848 -6 6v24c0 3.31152 2.68848 6 6 6h436c3.31152 0 6 -2.68848 6 -6
v-24c0 -3.31152 -2.68848 -6 -6 -6h-436z" />
    <glyph glyph-name="list" unicode="&#xf03a;" 
d="M506 334h-372c-3.31152 0 -6 2.68848 -6 6v24c0 3.31152 2.68848 6 6 6h372c3.31152 0 6 -2.68848 6 -6v-24c0 -3.31152 -2.68848 -6 -6 -6zM512 180c0 -3.31152 -2.68848 -6 -6 -6h-372c-3.31152 0 -6 2.68848 -6 6v24c0 3.31152 2.68848 6 6 6h372
c3.31152 0 6 -2.68848 6 -6v-24zM512 20c0 -3.31152 -2.68848 -6 -6 -6h-372c-3.31152 0 -6 2.68848 -6 6v24c0 3.31152 2.68848 6 6 6h372c3.31152 0 6 -2.68848 6 -6v-24zM84 328c0 -6.62695 -5.37305 -12 -12 -12h-48c-6.62695 0 -12 5.37305 -12 12v48
c0 6.62695 5.37305 12 12 12h48c6.62695 0 12 -5.37305 12 -12v-48zM84 168c0 -6.62695 -5.37305 -12 -12 -12h-48c-6.62695 0 -12 5.37305 -12 12v48c0 6.62695 5.37305 12 12 12h48c6.62695 0 12 -5.37305 12 -12v-48zM84 8c0 -6.62695 -5.37305 -12 -12 -12h-48
c-6.62695 0 -12 5.37305 -12 12v48c0 6.62695 5.37305 12 12 12h48c6.62695 0 12 -5.37305 12 -12v-48z" />
    <glyph glyph-name="outdent" unicode="&#xf03b;" horiz-adv-x="448" 
d="M0 372v24c0 3.31152 2.68848 6 6 6h436c3.31152 0 6 -2.68848 6 -6v-24c0 -3.31152 -2.68848 -6 -6 -6h-436c-3.31152 0 -6 2.68848 -6 6zM198 238c-3.31152 0 -6 2.68848 -6 6v24c0 3.31152 2.68848 6 6 6h244c3.31152 0 6 -2.68848 6 -6v-24
c0 -3.31152 -2.68848 -6 -6 -6h-244zM6 -18c-3.31152 0 -6 2.68848 -6 6v24c0 3.31152 2.68848 6 6 6h436c3.31152 0 6 -2.68848 6 -6v-24c0 -3.31152 -2.68848 -6 -6 -6h-436zM198 110c-3.31152 0 -6 2.68848 -6 6v24c0 3.31152 2.68848 6 6 6h244
c3.31152 0 6 -2.68848 6 -6v-24c0 -3.31152 -2.68848 -6 -6 -6h-244zM128 287.987v-191.973c0 -14.2695 -17.2832 -21.3457 -27.3135 -11.3125l-96 95.9863c-6.24805 6.24707 -6.24805 16.3789 0 22.627l96 95.9863c10.0186 10.0166 27.3135 2.97949 27.3135 -11.3145z
M96 134.627v114.746l-57.373 -57.373z" />
    <glyph glyph-name="indent" unicode="&#xf03c;" horiz-adv-x="448" 
d="M0 372v24c0 3.31152 2.68848 6 6 6h436c3.31152 0 6 -2.68848 6 -6v-24c0 -3.31152 -2.68848 -6 -6 -6h-436c-3.31152 0 -6 2.68848 -6 6zM166 238c-3.31152 0 -6 2.68848 -6 6v24c0 3.31152 2.68848 6 6 6h276c3.31152 0 6 -2.68848 6 -6v-24
c0 -3.31152 -2.68848 -6 -6 -6h-276zM6 -18c-3.31152 0 -6 2.68848 -6 6v24c0 3.31152 2.68848 6 6 6h436c3.31152 0 6 -2.68848 6 -6v-24c0 -3.31152 -2.68848 -6 -6 -6h-436zM166 110c-3.31152 0 -6 2.68848 -6 6v24c0 3.31152 2.68848 6 6 6h276
c3.31152 0 6 -2.68848 6 -6v-24c0 -3.31152 -2.68848 -6 -6 -6h-276zM0 96.0127v191.974c0 14.2695 17.2832 21.3457 27.3135 11.3125l96 -95.9854c6.24805 -6.24805 6.24805 -16.3799 0 -22.6279l-96 -95.9863c-10.0176 -10.0176 -27.3135 -2.98047 -27.3135 11.3135z
M32 249.373v-114.746l57.373 57.373z" />
    <glyph glyph-name="video" unicode="&#xf03d;" horiz-adv-x="576" 
d="M543.9 352c16.5996 0 32.0996 -13 32 -31.5v-257c0 -18.5 -15.5 -31.5 -32.1006 -31.5c-6.09961 0 -12.5 1.7002 -18.2002 5.7002l-109.6 69.8994v-59.7998c0 -26.3994 -23.2002 -47.7998 -51.7998 -47.7998h-312.4c-28.5996 0 -51.7998 21.4004 -51.7998 47.7998v288.4
c0 26.3994 23.2002 47.7998 51.7998 47.7998h312.4c28.5996 0 51.7998 -21.4004 51.7998 -47.7998v-59.7998l109.7 69.8994c5.7002 3.90039 12 5.7002 18.2002 5.7002zM384 47.7998v288.4c0 8.59961 -9.09961 15.7998 -19.7998 15.7998h-312.4
c-10.7002 0 -19.7998 -7.2002 -19.7998 -15.7998v-288.4c0 -8.59961 9.09961 -15.7998 19.7998 -15.7998h312.4c10.7002 0 19.7998 7.2002 19.7998 15.7998zM544 63.5v256.5l-128 -81.5v-92.9004l126.8 -80.7998z" />
    <glyph glyph-name="image" unicode="&#xf03e;" 
d="M464 384c26.5098 0 48 -21.4902 48 -48v-288c0 -26.5098 -21.4902 -48 -48 -48h-416c-26.5098 0 -48 21.4902 -48 48v288c0 26.5098 21.4902 48 48 48h416zM480 48v288c0 8.82227 -7.17773 16 -16 16h-416c-8.82227 0 -16 -7.17773 -16 -16v-288
c0 -8.82227 7.17773 -16 16 -16h416c8.82227 0 16 7.17773 16 16zM112 216c-30.9277 0 -56 25.0723 -56 56s25.0723 56 56 56s56 -25.0723 56 -56s-25.0723 -56 -56 -56zM112 296c-13.2344 0 -24 -10.7656 -24 -24s10.7656 -24 24 -24s24 10.7656 24 24s-10.7656 24 -24 24z
M319.029 272.971c9.37305 9.37207 24.5684 9.37207 33.9414 0l88 -88c4.5 -4.50098 7.0293 -10.6055 7.0293 -16.9707v-92c0 -6.62695 -5.37305 -12 -12 -12h-360c-6.62695 0 -12 5.37305 -12 12v28c0 5.4873 3.14941 13.0898 7.03027 16.9697l88 88
c9.37207 9.37305 24.5674 9.37305 33.9404 0l31.0293 -31.0283zM416 96v68.6855l-80 80l-112 -112l-48 48l-80 -80v-4.68555h320z" />
    <glyph glyph-name="pencil" unicode="&#xf040;" 
d="M493.255 391.764c24.9932 -24.9922 24.9932 -65.5156 0.000976562 -90.5098l-352.417 -352.417l-114.184 -12.6865c-15.2842 -1.69922 -28.2021 11.2178 -26.5039 26.5039l12.6865 114.184l352.417 352.416c24.9951 24.9941 65.5176 24.9932 90.5098 0zM398.059 251.314
l-82.7441 82.7441l-224.06 -224.059h34.7451v-48h48v-34.7451zM126.147 -20.5977l19.8525 19.8525v34.7451h-48v48h-34.7451l-19.8525 -19.8525l-6.55566 -58.9951l30.3057 -30.3057zM470.627 323.882c12.5068 12.5078 12.5059 32.749 0 45.2549l-37.4902 37.4902
c-12.5068 12.5068 -32.75 12.5049 -45.2549 0l-49.9404 -49.9414l82.7441 -82.7441z" />
    <glyph glyph-name="map-marker" unicode="&#xf041;" horiz-adv-x="384" 
d="M192 448c106.039 0 192 -85.9609 192 -192c0 -77.4131 -26.9697 -99.0312 -172.267 -309.67c-9.53613 -13.7744 -29.9316 -13.7725 -39.4658 0c-145.298 210.639 -172.268 232.257 -172.268 309.67c0 106.039 85.9609 192 192 192zM192 -25.9307
c139.308 201.461 160 217.44 160 281.931c0 42.7383 -16.6426 82.917 -46.8633 113.137c-30.2197 30.2207 -70.3984 46.8633 -113.137 46.8633s-82.917 -16.6426 -113.137 -46.8633c-30.2207 -30.2197 -46.8633 -70.3984 -46.8633 -113.137
c0 -64.4941 20.7051 -80.4883 160 -281.931z" />
    <glyph glyph-name="adjust" unicode="&#xf042;" 
d="M256 408c-118.663 0 -216 -96.0547 -216 -216c0 -118.663 96.0547 -216 216 -216c118.663 0 216 96.0547 216 216c0 118.663 -96.0547 216 -216 216zM256 440c136.967 0 248 -111.033 248 -248s-111.033 -248 -248 -248s-248 111.033 -248 248s111.033 248 248 248z
M224 315.99c-53.8555 -13.7998 -96 -63 -96 -123.99c0 -60.9893 42.1445 -110.19 96 -123.99v247.98zM256 352v-320c-88.3662 0 -160 71.6338 -160 160s71.6338 160 160 160z" />
    <glyph glyph-name="tint" unicode="&#xf043;" horiz-adv-x="352" 
d="M205.22 425.91c46.9902 -158.48 146.78 -200.07 146.78 -311.82c0 -98.4395 -78.7197 -178.09 -176 -178.09s-176 79.6504 -176 178.09c0 111.19 100.01 154.061 146.78 311.82c4.4502 14.8896 16.8398 22.0898 29.1895 22.0898
c12.6406 0 25.2402 -7.53027 29.25 -22.0898zM176 -32c79.4004 0 144 65.54 144 146.09c0 48.6104 -22.9404 81.3906 -54.6797 126.771c-29.2402 41.7695 -65.4707 93.5596 -89.3008 171.08c-23.8398 -77.2803 -60 -129.101 -89.1797 -170.91
c-31.8398 -45.6201 -54.8398 -78.5801 -54.8398 -126.94c0 -80.5498 64.5996 -146.09 144 -146.09zM176 32c8.83984 0 16 -7.16016 16 -16s-7.16016 -16 -16 -16c-61.75 0 -112 50.25 -112 112c0 8.83984 7.16016 16 16 16s16 -7.16016 16 -16
c0 -44.1104 35.8799 -80 80 -80z" />
    <glyph glyph-name="edit" unicode="&#xf044;" horiz-adv-x="576" 
d="M417.8 132.5l20 20c3.7998 3.7998 10.2002 1.09961 10.2002 -4.2002v-164.3c0 -26.5 -21.5 -48 -48 -48h-352c-26.5 0 -48 21.5 -48 48v352c0 26.5 21.5 48 48 48h292.3c5.2998 0 8 -6.5 4.2002 -10.2002l-20 -20c-1.09961 -1.09961 -2.7002 -1.7998 -4.2002 -1.7998
h-272.3c-8.7998 0 -16 -7.2002 -16 -16v-352c0 -8.7998 7.2002 -16 16 -16h352c8.7998 0 16 7.2002 16 16v144.3c0 1.60059 0.599609 3.10059 1.7998 4.2002zM563.7 323.7l-312.5 -312.5l-99.9004 -11.1006c-13.3994 -1.5 -24.7002 9.80078 -23.2002 23.2002
l11.1006 99.9004l312.5 312.5c16.3994 16.3994 43 16.3994 59.3994 0l52.6006 -52.6006c16.3994 -16.3994 16.3994 -43 0 -59.3994zM470.1 275.3l-66.6992 66.7002l-233.601 -233.5l-8.2998 -75.0996l75.0996 8.2998zM541.1 360.5l-52.5996 52.5996
c-3.7998 3.80078 -10.2002 4 -14.0996 0l-48.4004 -48.3994l66.7002 -66.7002l48.3994 48.4004c3.90039 3.7998 3.90039 10.1992 0 14.0996z" />
    <glyph glyph-name="arrows" unicode="&#xf047;" 
d="M337.782 13.2959l-73.2969 -73.7822c-4.68652 -4.68555 -12.2842 -4.68555 -16.9717 0l-73.2959 73.7822c-4.68555 4.68652 -4.68555 12.2842 0 16.9697l7.07031 7.07031c4.68555 4.68652 12.2842 4.68652 16.9707 0l40.7412 -41.2227h1v179.887h-179.887v-1
l41.2236 -40.7412c4.68652 -4.68555 4.68652 -12.2842 0 -16.9707l-7.07129 -7.07031c-4.68555 -4.68555 -12.2832 -4.68555 -16.9697 0l-73.7812 73.2969c-4.68555 4.68652 -4.68555 12.2842 0 16.9717l73.7822 73.2969c4.68652 4.68555 12.2842 4.68555 16.9707 0
l7.07129 -7.07129c4.68652 -4.68555 4.68652 -12.2842 0 -16.9707l-41.2256 -40.7412v-1h179.887v179.887h-1l-40.7412 -41.2236c-4.68555 -4.68652 -12.2842 -4.68652 -16.9707 0l-7.07031 7.07129c-4.68555 4.68555 -4.68652 12.2832 0 16.9697l73.2969 73.7822
c4.68652 4.68555 12.2842 4.68555 16.9717 0l73.2969 -73.7822c4.68555 -4.68652 4.68555 -12.2842 0 -16.9707l-7.07129 -7.07129c-4.68555 -4.68652 -12.2842 -4.68652 -16.9707 0l-40.7412 41.2246h-1v-179.887h179.887v1l-41.2236 40.7412
c-4.68652 4.68555 -4.68652 12.2842 0 16.9707l7.07129 7.07031c4.68555 4.68555 12.2832 4.68555 16.9697 0l73.7822 -73.2969c4.68652 -4.68652 4.68555 -12.2842 0 -16.9717l-73.7822 -73.2969c-4.68652 -4.68555 -12.2842 -4.68555 -16.9697 0l-7.07129 7.07031
c-4.68652 4.68555 -4.68652 12.2842 0 16.9707l41.2236 40.7422v1h-179.887v-179.887h1l40.7412 41.2236c4.68555 4.68652 12.2842 4.68652 16.9707 0l7.07031 -7.07129c4.68555 -4.68457 4.68555 -12.2822 0 -16.9697z" />
    <glyph glyph-name="step-backward" unicode="&#xf048;" horiz-adv-x="448" 
d="M76 -31c-6.59961 0 -12 5.40039 -12 12v424c0 6.59961 5.40039 12 12 12h8c6.59961 0 12 -5.40039 12 -12v-191.4c1.09961 1.2002 2.2002 2.30078 3.5 3.40039l232 192.6c20.5996 17.2002 52.5 2.80078 52.5 -24.5996v-383.9
c0 -27.3994 -31.9004 -41.7998 -52.5 -24.5996l-232 191.4c-1.2998 1 -2.40039 2.19922 -3.5 3.39941v-190.3c0 -6.59961 -5.40039 -12 -12 -12h-8zM116.5 192.4l235.2 -191.2l0.200195 -0.100586l0.0996094 -0.0996094v384l-0.0996094 -0.0996094l-0.100586 -0.100586z" />
    <glyph glyph-name="fast-backward" unicode="&#xf049;" 
d="M12 1c-6.59961 0 -12 5.40039 -12 12v360c0 6.59961 5.40039 12 12 12h8c6.59961 0 12 -5.40039 12 -12v-158.9c0.900391 1 1.90039 2 3 2.90039l200.5 160.5c20.5996 17.2002 52.5 2.7998 52.5 -24.5996v-118.801l171.5 143.5
c20.5996 17.2002 52.5 2.80078 52.5 -24.5996v-320c0 -27.4004 -31.9004 -41.7998 -52.5 -24.5996l-171.5 142.399v-117.8c0 -27.4004 -31.9004 -41.7998 -52.5 -24.5996l-200.5 159.399c-1.09961 0.900391 -2.09961 1.90039 -3 2.90039v-157.7
c0 -6.59961 -5.40039 -12 -12 -12h-8zM292.5 192.4l0.0996094 -0.100586l0.100586 -0.0996094l187.3 -159.2v320l-187.1 -160.4l-0.200195 -0.0996094zM61 192.8v-0.799805l194.8 -158.8l0.100586 -0.100586l0.0996094 -0.0996094v320l-0.0996094 -0.0996094
l-0.100586 -0.100586z" />
    <glyph glyph-name="backward" unicode="&#xf04a;" 
d="M267.5 166.9c-15.2998 12.6992 -15.2998 36.2998 0 49.0996l192 160.6c20.5996 17.2002 52.5 2.80078 52.5 -24.5996v-319.9c0 -27.3994 -31.9004 -41.7998 -52.5 -24.5996zM288 191.4l192 -159.4v320zM11.5 166.9c-15.2998 12.6992 -15.2998 36.2998 0 49.0996
l192 160.6c20.5996 17.2002 52.5 2.80078 52.5 -24.5996v-319.9c0 -27.3994 -31.9004 -41.7998 -52.5 -24.5996zM32 191.4l192 -159.4v320z" />
    <glyph glyph-name="play" unicode="&#xf04b;" horiz-adv-x="448" 
d="M424.4 233.3c31.5 -18.5 31.3994 -64.0996 0 -82.5996l-352 -208c-31.7002 -18.7998 -72.4004 3.7998 -72.4004 41.2998v416.1c0 41.8008 43.7998 58.2002 72.4004 41.3008zM408.2 178.2c10.3994 6.2002 10.3994 21.3994 -0.100586 27.5996l-352 208.101
c-7.69922 4.59961 -24.0996 2.5 -24.0996 -13.8008v-416.1c0 -12.5996 13.5996 -19.9004 24.2002 -13.7998z" />
    <glyph glyph-name="pause" unicode="&#xf04c;" horiz-adv-x="448" 
d="M48 -31c-26.5 0 -48 21.5 -48 48v352c0 26.5 21.5 48 48 48h96c26.5 0 48 -21.5 48 -48v-352c0 -26.5 -21.5 -48 -48 -48h-96zM32 369v-352c0 -8.7998 7.2002 -16 16 -16h96c8.7998 0 16 7.2002 16 16v352c0 8.7998 -7.2002 16 -16 16h-96c-8.7998 0 -16 -7.2002 -16 -16
zM304 -31c-26.5 0 -48 21.5 -48 48v352c0 26.5 21.5 48 48 48h96c26.5 0 48 -21.5 48 -48v-352c0 -26.5 -21.5 -48 -48 -48h-96zM288 369v-352c0 -8.7998 7.2002 -16 16 -16h96c8.7998 0 16 7.2002 16 16v352c0 8.7998 -7.2002 16 -16 16h-96c-8.7998 0 -16 -7.2002 -16 -16
z" />
    <glyph glyph-name="stop" unicode="&#xf04d;" horiz-adv-x="448" 
d="M400 416c26.5 0 48 -21.5 48 -48v-352c0 -26.5 -21.5 -48 -48 -48h-352c-26.5 0 -48 21.5 -48 48v352c0 26.5 21.5 48 48 48h352zM416 16v352c0 8.7998 -7.2002 16 -16 16h-352c-8.7998 0 -16 -7.2002 -16 -16v-352c0 -8.7998 7.2002 -16 16 -16h352
c8.7998 0 16 7.2002 16 16z" />
    <glyph glyph-name="forward" unicode="&#xf04e;" 
d="M244.5 217.1c15.2998 -12.6992 15.2998 -36.2998 0 -49.1992l-192 -160.5c-20.5996 -17.2002 -52.5 -2.80078 -52.5 24.5996v320c0 27.4004 31.9004 41.7002 52.5 24.5996zM224 192.6l-192 159.4v-320zM500.5 217.1c15.2998 -12.6992 15.2998 -36.2998 0 -49.1992
l-192 -160.5c-20.5996 -17.2002 -52.5 -2.80078 -52.5 24.5996v320c0 27.4004 31.9004 41.7002 52.5 24.5zM480 192.6l-192 159.4v-320z" />
    <glyph glyph-name="fast-forward" unicode="&#xf050;" 
d="M500 385c6.59961 0 12 -5.40039 12 -12v-360c0 -6.59961 -5.40039 -12 -12 -12h-8c-6.59961 0 -12 5.40039 -12 12v158.9c-0.900391 -1 -1.90039 -2 -3 -2.90039l-200.5 -160.6c-20.5996 -17.2002 -52.5 -2.80078 -52.5 24.5996v118.8l-171.5 -143.399
c-20.5996 -17.2002 -52.5 -2.80078 -52.5 24.5996v320c0 27.4004 31.9004 41.7002 52.5 24.5996l171.5 -142.399v117.8c0 27.4004 31.9004 41.7002 52.5 24.5996l200.5 -159.399c1.09961 -0.900391 2.09961 -1.90039 3 -2.90039v157.7c0 6.59961 5.40039 12 12 12h8z
M219.5 193.6l-0.0996094 0.100586l-0.100586 0.0996094l-187.3 159.2v-320l187.1 160.4l0.200195 0.0996094zM451 193.1v0.900391l-194.8 158.8l-0.100586 0.100586l-0.0996094 0.0996094v-320h0.0996094l0.100586 0.0996094z" />
    <glyph glyph-name="step-forward" unicode="&#xf051;" horiz-adv-x="448" 
d="M372 417c6.59961 0 12 -5.40039 12 -12v-424c0 -6.59961 -5.40039 -12 -12 -12h-8c-6.59961 0 -12 5.40039 -12 12v191.4c-1.09961 -1.2002 -2.2002 -2.30078 -3.5 -3.40039l-232 -192.6c-20.5996 -17.2002 -52.5 -2.80078 -52.5 24.5996v384
c0 27.4004 31.9004 41.7002 52.5 24.5l232 -191.4c1.2998 -1 2.40039 -2.19922 3.5 -3.39941v190.3c0 6.59961 5.40039 12 12 12h8zM331.5 193.6l-235.2 191.2l-0.200195 0.100586l-0.0996094 0.0996094v-384l0.0996094 0.0996094l0.100586 0.100586z" />
    <glyph glyph-name="eject" unicode="&#xf052;" horiz-adv-x="448" 
d="M435.322 208.435c28.1973 -30.7607 6.26758 -80.4346 -35.3828 -80.4346h-351.887c-41.7285 0 -63.5273 49.7324 -35.3828 80.4346l175.946 192.008c19.0156 20.7441 51.7529 20.7422 70.7666 0zM399.939 160c13.8691 0 21.1641 16.5889 11.7939 26.8115
l-175.943 192.013c-6.33691 6.91309 -17.2617 6.8916 -23.585 -0.00488281l-175.943 -192.003c-9.37793 -10.2314 -2.0752 -26.8164 11.791 -26.8164h351.887zM448 48v-32c0 -26.5098 -21.4902 -48 -48 -48h-352c-26.5098 0 -48 21.4902 -48 48v32
c0 26.5098 21.4902 48 48 48h352c26.5098 0 48 -21.4902 48 -48zM400 64h-352c-8.82227 0 -16 -7.17773 -16 -16v-32c0 -8.82324 7.17773 -16 16 -16h352c8.82227 0 16 7.17676 16 16v32c0 8.82227 -7.17773 16 -16 16z" />
    <glyph glyph-name="chevron-left" unicode="&#xf053;" horiz-adv-x="256" 
d="M238.475 -27.5352c-4.68555 -4.68652 -12.2832 -4.68652 -16.9697 -0.000976562l-211.051 211.05c-4.68652 4.6875 -4.68652 12.2852 0 16.9717l211.051 211.05c4.68652 4.68555 12.2842 4.68555 16.9697 0l7.07129 -7.07031
c4.68652 -4.68652 4.68652 -12.2852 0 -16.9707l-195.493 -195.494l195.493 -195.494c4.68652 -4.68652 4.68652 -12.2852 0 -16.9707z" />
    <glyph glyph-name="chevron-right" unicode="&#xf054;" horiz-adv-x="256" 
d="M17.5254 411.535c4.68555 4.68652 12.2832 4.68652 16.9697 0l211.051 -211.049c4.68652 -4.6875 4.68652 -12.2852 0 -16.9717l-211.051 -211.05c-4.68652 -4.68555 -12.2842 -4.68555 -16.9697 0l-7.07129 7.07031c-4.68652 4.68652 -4.68652 12.2852 0 16.9707
l195.493 195.494l-195.493 195.494c-4.68652 4.68652 -4.68652 12.2852 0 16.9707z" />
    <glyph glyph-name="plus-circle" unicode="&#xf055;" 
d="M384 198v-12c0 -6.59961 -5.40039 -12 -12 -12h-98v-98c0 -6.59961 -5.40039 -12 -12 -12h-12c-6.59961 0 -12 5.40039 -12 12v98h-98c-6.59961 0 -12 5.40039 -12 12v12c0 6.59961 5.40039 12 12 12h98v98c0 6.59961 5.40039 12 12 12h12c6.59961 0 12 -5.40039 12 -12
v-98h98c6.59961 0 12 -5.40039 12 -12zM504 192c0 -137 -111 -248 -248 -248s-248 111 -248 248s111 248 248 248s248 -111 248 -248zM472 192c0 119.9 -97.2998 216 -216 216c-119.9 0 -216 -97.2998 -216 -216c0 -119.9 97.2998 -216 216 -216
c119.9 0 216 97.2998 216 216z" />
    <glyph glyph-name="minus-circle" unicode="&#xf056;" 
d="M140 174c-6.59961 0 -12 5.40039 -12 12v12c0 6.59961 5.40039 12 12 12h232c6.59961 0 12 -5.40039 12 -12v-12c0 -6.59961 -5.40039 -12 -12 -12h-232zM504 192c0 -137 -111 -248 -248 -248s-248 111 -248 248s111 248 248 248s248 -111 248 -248zM472 192
c0 119.9 -97.2998 216 -216 216c-119.9 0 -216 -97.2998 -216 -216c0 -119.9 97.2998 -216 216 -216c119.9 0 216 97.2998 216 216z" />
    <glyph glyph-name="times-circle" unicode="&#xf057;" 
d="M256 440c137 0 248 -111 248 -248s-111 -248 -248 -248s-248 111 -248 248s111 248 248 248zM256 -24c119.9 0 216 97.2998 216 216c0 119.9 -97.2998 216 -216 216c-119.9 0 -216 -97.2998 -216 -216c0 -119.9 97.2998 -216 216 -216zM350.8 261.3l-69.2998 -69.2998
l69.2998 -69.2998c4.7002 -4.7002 4.7002 -12.2998 0 -17l-8.5 -8.5c-4.7002 -4.7002 -12.2998 -4.7002 -17 0l-69.2998 69.2998l-69.2998 -69.2998c-4.7002 -4.7002 -12.2998 -4.7002 -17 0l-8.5 8.5c-4.7002 4.7002 -4.7002 12.2998 0 17l69.2998 69.2998
l-69.2998 69.2998c-4.7002 4.7002 -4.7002 12.2998 0 17l8.5 8.5c4.7002 4.7002 12.2998 4.7002 17 0l69.2998 -69.2998l69.2998 69.2998c4.7002 4.7002 12.2998 4.7002 17 0l8.5 -8.5c4.60059 -4.7002 4.60059 -12.2998 0 -17z" />
    <glyph glyph-name="check-circle" unicode="&#xf058;" 
d="M256 440c136.967 0 248 -111.033 248 -248s-111.033 -248 -248 -248s-248 111.033 -248 248s111.033 248 248 248zM256 -24c119.945 0 216 97.3369 216 216c0 119.945 -97.3359 216 -216 216c-119.945 0 -216 -97.3369 -216 -216c0 -119.945 97.3359 -216 216 -216z
M397.63 250.961l-180.479 -179.032c-4.70508 -4.66699 -12.3037 -4.63672 -16.9707 0.0683594l-85.8779 86.5723c-4.66699 4.70508 -4.63672 12.3027 0.0683594 16.9697l8.51953 8.45117c4.70508 4.66699 12.3037 4.63672 16.9707 -0.0683594l68.9756 -69.5332
l163.441 162.13c4.70508 4.66699 12.3027 4.6377 16.9697 -0.0673828l8.45117 -8.52051c4.66797 -4.70508 4.63672 -12.3027 -0.0683594 -16.9697z" />
    <glyph glyph-name="question-circle" unicode="&#xf059;" 
d="M256 108c15.4639 0 28 -12.5361 28 -28s-12.5361 -28 -28 -28s-28 12.5361 -28 28s12.5361 28 28 28zM263.67 132h-16c-6.62695 0 -12 5.37305 -12 12v0.380859c0 70.3428 77.4404 63.6191 77.4404 107.408c0 20.0156 -17.7617 40.2109 -57.4404 40.2109
c-29.1436 0 -44.2646 -9.64941 -59.2109 -28.6924c-3.9082 -4.97949 -11.0537 -5.99414 -16.248 -2.37598l-13.1338 9.15039c-5.625 3.91895 -6.86035 11.7705 -2.64551 17.1768c21.2266 27.2275 46.4102 44.7412 91.2383 44.7412
c52.3203 0 97.4404 -29.751 97.4404 -80.2109c0 -67.4141 -77.4404 -63.8486 -77.4404 -107.408v-0.380859c0 -6.62695 -5.37305 -12 -12 -12zM256 408c-119.398 0 -216 -96.7969 -216 -216c0 -119.438 96.7559 -216 216 -216c119.39 0 216 96.709 216 216
c0 119.925 -97.3789 216 -216 216zM256 440c136.957 0 248 -111.083 248 -248c0 -136.997 -111.043 -248 -248 -248s-248 111.003 -248 248c0 136.917 111.043 248 248 248z" />
    <glyph glyph-name="info-circle" unicode="&#xf05a;" 
d="M256 408c-119.398 0 -216 -96.7969 -216 -216c0 -119.438 96.7559 -216 216 -216c119.39 0 216 96.709 216 216c0 119.925 -97.3789 216 -216 216zM256 440c136.957 0 248 -111.083 248 -248c0 -136.997 -111.043 -248 -248 -248s-248 111.003 -248 248
c0 136.917 111.043 248 248 248zM220 96h12v120h-12c-6.62695 0 -12 5.37305 -12 12v8c0 6.62695 5.37305 12 12 12h48c6.62695 0 12 -5.37305 12 -12v-140h12c6.62695 0 12 -5.37305 12 -12v-8c0 -6.62695 -5.37305 -12 -12 -12h-72c-6.62695 0 -12 5.37305 -12 12v8
c0 6.62695 5.37305 12 12 12zM256 336c17.6729 0 32 -14.3271 32 -32s-14.3271 -32 -32 -32s-32 14.3271 -32 32s14.3271 32 32 32z" />
    <glyph glyph-name="crosshairs" unicode="&#xf05b;" 
d="M506 208c3.31152 0 6 -2.68848 6 -6v-20c0 -3.31152 -2.68848 -6 -6 -6h-34.5908c-7.80078 -106.538 -92.8711 -191.608 -199.409 -199.409v-34.5908c0 -3.31152 -2.68848 -6 -6 -6h-20c-3.31152 0 -6 2.68848 -6 6v34.5908
c-106.538 7.80078 -191.608 92.8711 -199.409 199.409h-34.5908c-3.31152 0 -6 2.68848 -6 6v20c0 3.31152 2.68848 6 6 6h34.5908c7.80078 106.538 92.8711 191.608 199.409 199.409v34.5908c0 3.31152 2.68848 6 6 6h20c3.31152 0 6 -2.68848 6 -6v-34.5908
c106.538 -7.80078 191.608 -92.8711 199.409 -199.409h34.5908zM272 8.69531c89.0312 7.62109 159.711 78.5869 167.305 167.305h-65.3047c-3.31152 0 -6 2.68848 -6 6v20c0 3.31152 2.68848 6 6 6h65.3047c-7.62012 89.0312 -78.5869 159.711 -167.305 167.305v-65.3047
c0 -3.31152 -2.68848 -6 -6 -6h-20c-3.31152 0 -6 2.68848 -6 6v65.3047c-89.0312 -7.62109 -159.711 -78.5869 -167.305 -167.305h65.3047c3.31152 0 6 -2.68848 6 -6v-20c0 -3.31152 -2.68848 -6 -6 -6h-65.3047c7.62012 -89.0312 78.5869 -159.711 167.305 -167.305
v65.3047c0 3.31152 2.68848 6 6 6h20c3.31152 0 6 -2.68848 6 -6v-65.3047zM280 192c0 -13.2549 -10.7451 -24 -24 -24s-24 10.7451 -24 24s10.7451 24 24 24s24 -10.7451 24 -24z" />
    <glyph glyph-name="ban" unicode="&#xf05e;" 
d="M256 440c136.967 0 248 -111.033 248 -248s-111.033 -248 -248 -248s-248 111.033 -248 248s111.033 248 248 248zM103.265 39.2646c80.6064 -80.6055 208.94 -84.1641 293.744 -10.8994l-304.644 304.643c-73.249 -84.7861 -69.7227 -213.121 10.8994 -293.743z
M419.635 50.9922c73.249 84.7861 69.7227 213.122 -10.8994 293.743c-80.6064 80.6045 -208.939 84.1631 -293.743 10.8994z" />
    <glyph glyph-name="arrow-left" unicode="&#xf060;" horiz-adv-x="448" 
d="M231.536 -27.5352c-4.68652 -4.68652 -12.2842 -4.68652 -16.9697 -0.000976562l-211.052 211.05c-4.68555 4.6875 -4.68555 12.2852 0 16.9717l211.052 211.05c4.68555 4.68555 12.2832 4.68555 16.9697 0l7.07129 -7.07031
c4.68555 -4.68652 4.68555 -12.2852 0 -16.9707l-178.494 -178.494h375.887c6.62695 0 12 -5.37305 12 -12v-10c0 -6.62695 -5.37305 -12 -12 -12h-375.887l178.494 -178.494c4.68555 -4.68652 4.68555 -12.2852 0 -16.9707z" />
    <glyph glyph-name="arrow-right" unicode="&#xf061;" horiz-adv-x="448" 
d="M216.464 411.535c4.68652 4.68652 12.2842 4.68652 16.9697 0l211.052 -211.049c4.68555 -4.6875 4.68555 -12.2852 0 -16.9717l-211.052 -211.05c-4.68555 -4.68555 -12.2832 -4.68555 -16.9697 0l-7.07129 7.07031c-4.68555 4.68652 -4.68555 12.2852 0 16.9707
l178.494 178.494h-375.887c-6.62695 0 -12 5.37305 -12 12v10c0 6.62695 5.37305 12 12 12h375.887l-178.494 178.494c-4.68555 4.68652 -4.68555 12.2852 0 16.9707z" />
    <glyph glyph-name="arrow-up" unicode="&#xf062;" horiz-adv-x="448" 
d="M4.46484 184.464c-4.68652 4.68652 -4.68652 12.2842 0 16.9697l211.049 211.052c4.6875 4.68555 12.2852 4.68555 16.9717 0l211.05 -211.051c4.68555 -4.68555 4.68555 -12.2832 0 -16.9697l-7.07031 -7.07129c-4.68652 -4.68555 -12.2852 -4.68555 -16.9707 0
l-178.494 178.493v-375.887c0 -6.62695 -5.37305 -12 -12 -12h-10c-6.62695 0 -12 5.37305 -12 12v375.887l-178.494 -178.494c-4.68652 -4.68555 -12.2852 -4.68555 -16.9707 0z" />
    <glyph glyph-name="arrow-down" unicode="&#xf063;" horiz-adv-x="448" 
d="M443.5 199.5c4.7002 -4.7002 4.7002 -12.2002 -0.0996094 -17l-211 -211.1c-4.7002 -4.7002 -12.3008 -4.7002 -17 0l-211 211.1c-4.7002 4.7002 -4.7002 12.2998 0 17l7.09961 7.09961c4.7002 4.7002 12.2998 4.7002 17 0l178.5 -178.5v375.9
c0 6.59961 5.40039 12 12 12h10c6.59961 0 12 -5.40039 12 -12v-375.9l178.4 178.5c4.69922 4.7002 12.2998 4.7002 17 0z" />
    <glyph glyph-name="share" unicode="&#xf064;" horiz-adv-x="576" 
d="M564.907 251.65c14.791 -15.4707 14.791 -39.8301 0.000976562 -55.3008l-175.998 -184c-24.7197 -25.8438 -68.9102 -8.58887 -68.9102 27.6504v87.8398c-154.425 -1.81152 -219.063 -16.7266 -181.19 -151.091c8.3418 -29.5176 -25.4463 -52.2324 -49.6797 -34.5098
c-33.29 24.3398 -89.1299 79.5908 -89.1299 174.57c0 171.088 154.548 201.035 320 203.021v88.1543c0 36.2695 44.2158 53.4658 68.9102 27.6494zM541.78 218.47c1.22949 1.2793 2.22754 3.75586 2.22754 5.53027s-0.998047 4.25098 -2.22754 5.53027l-176 184
c-4.92969 5.16016 -13.7803 1.73145 -13.7803 -5.53027v-120c-157.114 0 -320 -11.1797 -320 -171.19c0 -74.3994 40 -122.17 76.0195 -148.51c-51.333 181.993 72.584 191.7 243.98 191.7v-120c0 -7.25977 8.84668 -10.6904 13.7803 -5.53027z" />
    <glyph glyph-name="expand" unicode="&#xf065;" horiz-adv-x="448" 
d="M0 268v124c0 13.2998 10.7002 24 24 24h124c6.59961 0 12 -5.40039 12 -12v-8c0 -6.59961 -5.40039 -12 -12 -12h-116v-116c0 -6.59961 -5.40039 -12 -12 -12h-8c-6.59961 0 -12 5.40039 -12 12zM300 416h124c13.2998 0 24 -10.7002 24 -24v-124
c0 -6.59961 -5.40039 -12 -12 -12h-8c-6.59961 0 -12 5.40039 -12 12v116h-116c-6.59961 0 -12 5.40039 -12 12v8c0 6.59961 5.40039 12 12 12zM448 116v-124c0 -13.2998 -10.7002 -24 -24 -24h-124c-6.59961 0 -12 5.40039 -12 12v8c0 6.59961 5.40039 12 12 12h116v116
c0 6.59961 5.40039 12 12 12h8c6.59961 0 12 -5.40039 12 -12zM148 -32h-124c-13.2998 0 -24 10.7002 -24 24v124c0 6.59961 5.40039 12 12 12h8c6.59961 0 12 -5.40039 12 -12v-116h116c6.59961 0 12 -5.40039 12 -12v-8c0 -6.59961 -5.40039 -12 -12 -12z" />
    <glyph glyph-name="compress" unicode="&#xf066;" horiz-adv-x="448" 
d="M436 256h-124c-13.2998 0 -24 10.7002 -24 24v124c0 6.59961 5.40039 12 12 12h8c6.59961 0 12 -5.40039 12 -12v-116h116c6.59961 0 12 -5.40039 12 -12v-8c0 -6.59961 -5.40039 -12 -12 -12zM160 280c0 -13.2998 -10.7002 -24 -24 -24h-124
c-6.59961 0 -12 5.40039 -12 12v8c0 6.59961 5.40039 12 12 12h116v116c0 6.59961 5.40039 12 12 12h8c6.59961 0 12 -5.40039 12 -12v-124zM160 -20c0 -6.59961 -5.40039 -12 -12 -12h-8c-6.59961 0 -12 5.40039 -12 12v116h-116c-6.59961 0 -12 5.40039 -12 12v8
c0 6.59961 5.40039 12 12 12h124c13.2998 0 24 -10.7002 24 -24v-124zM320 -20c0 -6.59961 -5.40039 -12 -12 -12h-8c-6.59961 0 -12 5.40039 -12 12v124c0 13.2998 10.7002 24 24 24h124c6.59961 0 12 -5.40039 12 -12v-8c0 -6.59961 -5.40039 -12 -12 -12h-116v-116z" />
    <glyph glyph-name="plus" unicode="&#xf067;" horiz-adv-x="384" 
d="M376 216c4.41992 0 8 -3.58008 8 -8v-32c0 -4.41992 -3.58008 -8 -8 -8h-160v-160c0 -4.41992 -3.58008 -8 -8 -8h-32c-4.41992 0 -8 3.58008 -8 8v160h-160c-4.41992 0 -8 3.58008 -8 8v32c0 4.41992 3.58008 8 8 8h160v160c0 4.41992 3.58008 8 8 8h32
c4.41992 0 8 -3.58008 8 -8v-160h160z" />
    <glyph glyph-name="minus" unicode="&#xf068;" horiz-adv-x="384" 
d="M376 216c4.41992 0 8 -3.58008 8 -8v-32c0 -4.41992 -3.58008 -8 -8 -8h-368c-4.41992 0 -8 3.58008 -8 8v32c0 4.41992 3.58008 8 8 8h368z" />
    <glyph glyph-name="asterisk" unicode="&#xf069;" 
d="M475.31 83.8564c5.73926 -3.31348 7.70605 -10.6523 4.39258 -16.3926l-4 -6.92773c-3.31348 -5.73926 -10.6523 -7.70605 -16.3926 -4.39258l-187.31 108.144v-216.287c0 -6.62695 -5.37305 -12 -12 -12h-8c-6.62695 0 -12 5.37305 -12 12v216.287l-187.31 -108.144
c-5.73926 -3.31348 -13.0781 -1.34766 -16.3926 4.39258l-4 6.92773c-3.31348 5.73926 -1.34766 13.0781 4.39258 16.3926l187.31 108.144l-187.31 108.144c-5.73926 3.31348 -7.70605 10.6523 -4.39258 16.3926l4 6.92773c3.31348 5.73926 10.6523 7.70605 16.3926 4.39258
l187.31 -108.144v216.287c0 6.62695 5.37305 12 12 12h8c6.62695 0 12 -5.37305 12 -12v-216.287l187.31 108.144c5.73926 3.31348 13.0781 1.34766 16.3926 -4.39258l4 -6.92773c3.31348 -5.73926 1.34766 -13.0781 -4.39258 -16.3926l-187.31 -108.144z" />
    <glyph glyph-name="exclamation-circle" unicode="&#xf06a;" 
d="M256 408c-119.398 0 -216 -96.7969 -216 -216c0 -119.438 96.7559 -216 216 -216c119.39 0 216 96.709 216 216c0 119.925 -97.3789 216 -216 216zM256 440c136.957 0 248 -111.083 248 -248c0 -136.997 -111.043 -248 -248 -248s-248 111.003 -248 248
c0 136.917 111.043 248 248 248zM244.51 320h22.9795c6.82227 0 12.2734 -5.68164 11.9893 -12.5l-7 -168c-0.267578 -6.42773 -5.55566 -11.5 -11.9893 -11.5h-8.97949c-6.43262 0 -11.7217 5.07324 -11.9902 11.5l-7 168c-0.282227 6.81836 5.16699 12.5 11.9902 12.5z
M256 108c15.4639 0 28 -12.5361 28 -28s-12.5361 -28 -28 -28s-28 12.5361 -28 28s12.5361 28 28 28z" />
    <glyph glyph-name="gift" unicode="&#xf06b;" 
d="M464 304c26.5 0 48 -21.5 48 -48v-96c0 -8.7998 -7.2002 -16 -16 -16h-16v-144c0 -26.5 -21.5 -48 -48 -48h-352c-26.5 0 -48 21.5 -48 48v144h-16c-8.7998 0 -16 7.2002 -16 16v96c0 26.5 21.5 48 48 48h39.2998c-9.5 13.4004 -15.2998 29.9004 -15.2998 48
c0 44.0996 33.4004 80 74.5 80c42.2998 0 66.7998 -25.4004 109.5 -95.7998c42.7002 70.3994 67.2002 95.7998 109.5 95.7998c41.0996 0 74.5 -35.9004 74.5 -80c0 -18.0996 -5.7998 -34.5996 -15.2998 -48h39.2998zM276.2 307.6l-2.2002 -3.59961h91.5
c23.4004 0 42.5 21.5 42.5 48s-19.0996 48 -42.5 48c-23.2998 0 -39.7998 -9.09961 -89.2998 -92.4004zM146.5 400c-23.4004 0 -42.5 -21.5 -42.5996 -48c0 -26.5 19.0996 -48 42.5 -48h91.5l-2.10059 3.59961c-49.5 83.3008 -65.8994 92.4004 -89.2998 92.4004zM192 -16
v160h-128v-144c0 -8.7998 7.2002 -16 16 -16h112zM192 176v96h-144c-8.7998 0 -16 -7.2002 -16 -16v-80h160zM288 -16v288h-64v-288h64zM448 0v144h-128v-160h112c8.7998 0 16 7.2002 16 16zM480 176v80c0 8.7998 -7.2002 16 -16 16h-144v-96h160z" />
    <glyph glyph-name="leaf" unicode="&#xf06c;" horiz-adv-x="576" 
d="M546.2 438.3c19 -42.3994 29.7998 -94.3994 29.7998 -144.6c0 -172.5 -110.5 -313.2 -267.6 -324.601c-6.7002 -0.699219 -13.5 -1.09961 -20.4004 -1.09961c-73.2998 0 -136.9 41.0996 -169.3 101.4c-63.7002 -57.6006 -87.2002 -121.5 -87.6006 -122.7
c-3 -8.7002 -12.5 -12.6006 -20.3994 -9.7998c-8.2998 2.89941 -12.7002 12.0996 -9.7998 20.3994c0.5 1.2998 28.3994 77.7002 104.699 143c-6.19922 18.7998 -9.59961 38.7998 -9.59961 59.7002c0 106 86 192 192 192h80c63.4004 0 118.9 33.5996 149.9 87.5
c3.2998 5.7002 8.69922 8.5 14 8.5c5.69922 0 11.3994 -3.2002 14.2998 -9.7002zM305 0.900391c138.9 10.0996 239 133.199 239 292.8c0 34.7998 -5.7998 71.2002 -16.2998 103.5c-38.7002 -48.7998 -96.4004 -77.2002 -159.7 -77.2002h-80
c-88.2002 0 -160 -71.7998 -160 -160c0 -13.2998 2.09961 -26 5.2002 -38.4004c55.7998 39.4004 132 70.4004 234.8 70.4004c8.7998 0 16 -7.2002 16 -16s-7.2002 -16 -16 -16c-99.4004 0 -171.7 -31 -223.5 -69.4004c25.9004 -53.3994 80.2002 -90.5996 143.5 -90.5996
c5.40039 0 11.0996 0.299805 17 0.900391z" />
    <glyph glyph-name="fire" unicode="&#xf06d;" horiz-adv-x="384" 
d="M216 423.99c0 -103.141 168 -125.7 168 -295.99c0 -105.87 -86.1299 -192 -192 -192s-192 86.1299 -192 192c0 62.7197 30.75 121.62 82.2695 157.55c15.8809 11.0801 37.7305 -0.290039 37.7305 -19.6797v-105.87c0 -22.0596 17.9404 -40 40 -40s40 17.9404 40 40
c0 49.2695 -123.45 129.75 -28.1504 277.03c12.9902 20.0693 44.1504 10.7598 44.1504 -13.04zM192 -32c88.2197 0 160 71.7803 160 160c0 144.7 -144 160 -165.41 280c-66.5898 -120 45.4102 -182.89 45.4102 -248c0 -39.7002 -32.2998 -72 -72 -72s-72 32.2998 -72 72v96
c-35.3203 -30.25 -56 -81.0596 -56 -128c0 -88.2197 71.7803 -160 160 -160z" />
    <glyph glyph-name="eye" unicode="&#xf06e;" horiz-adv-x="576" 
d="M288 160c-35.3281 0 -64 28.6719 -64 64c0 0.969727 0.290039 1.84961 0.290039 2.84961c4.33594 -1.57422 11.5996 -2.85156 16.2119 -2.85156c26.2207 0 47.5 21.2793 47.5 47.5c0 4.6123 -1.27734 11.876 -2.85156 16.2119
c0.969727 0.0498047 1.84961 0.290039 2.84961 0.290039c35.3281 0 64 -28.6719 64 -64s-28.6719 -64 -64 -64zM572.52 206.6c1.9209 -3.79883 3.47949 -10.3379 3.47949 -14.5947s-1.55859 -10.7959 -3.47949 -14.5947c-54.1992 -105.771 -161.59 -177.41 -284.52 -177.41
s-230.29 71.5898 -284.52 177.4c-1.9209 3.79883 -3.47949 10.3379 -3.47949 14.5947s1.55859 10.7959 3.47949 14.5947c54.1992 105.771 161.59 177.41 284.52 177.41s230.29 -71.5898 284.52 -177.4zM288 352c-70.5791 -0.0771484 -127.923 -57.4209 -128 -128
c0 -70.6562 57.3438 -128 128 -128s128 57.3438 128 128s-57.3438 128 -128 128zM288 32c107.36 0 205.47 61.3096 256 160c-24.1484 47.4062 -82.29 105.347 -129.78 129.33c20.8701 -27.0205 33.7803 -60.5 33.7803 -97.3301c0 -88.3203 -71.6797 -160 -160 -160
s-160 71.6797 -160 160c0 36.8301 12.9102 70.3096 33.7803 97.3301c-47.4902 -23.9834 -105.632 -81.9238 -129.78 -129.33c50.54 -98.6904 148.64 -160 256 -160z" />
    <glyph glyph-name="eye-slash" unicode="&#xf070;" horiz-adv-x="640" 
d="M637 -37.25c1.65625 -1.32617 3.00098 -4.12402 3.00098 -6.24512c0 -1.54785 -0.78418 -3.78613 -1.75098 -4.99512l-10 -12.5098c-1.32617 -1.65918 -4.12598 -3.00586 -6.24902 -3.00586c-1.55078 0 -3.79102 0.787109 -5.00098 1.75586l-614 483.5
c-1.65332 1.32617 -2.99414 4.12207 -2.99414 6.24023c0 1.5498 0.786133 3.79004 1.75391 5l10 12.5098c1.32617 1.65625 4.12402 3.00098 6.24609 3.00098c1.54785 0 3.78516 -0.78418 4.99414 -1.75098zM320 352c-32.4404 0 -61.7598 -12.5195 -84.3496 -32.4297
l-45.7705 36c34.1514 15.6934 92.3711 28.4297 129.955 28.4297h0.165039c122.94 0 230.3 -71.5898 284.53 -177.4c1.91992 -3.79883 3.47949 -10.3379 3.47949 -14.5947s-1.55957 -10.7959 -3.47949 -14.5947c-18.0605 -35.25 -42.46 -66.2305 -70.9307 -92.5098
l-25.3193 19.9395c23.2119 20.5518 53.5732 59.5986 67.7695 87.1602c-24.1641 47.4092 -82.3281 105.349 -129.83 129.33c20.8701 -27.0205 33.7803 -60.5 33.7803 -97.3301c0 -29.1396 -8.34961 -56.0898 -21.9502 -79.5703l-25.4502 20
c9.5 17.8799 15.4004 37.9502 15.4004 59.5703c-0.0771484 70.5791 -57.4209 127.923 -128 128zM380.86 205.17l-63.9502 50.3496c1.70605 4.36914 3.08984 11.7197 3.08984 16.4092c0 4.49805 -1.27637 11.5684 -2.84961 15.7812
c0.959961 0.0498047 1.84961 0.290039 2.84961 0.290039c0.236328 0.00292969 0.620117 0.00585938 0.856445 0.00585938c34.8594 0 63.1504 -28.291 63.1504 -63.1504c0 -5.57129 -1.41016 -14.3906 -3.14648 -19.6855zM163.24 254.33l29.4795 -23.21
c-0.129883 -2.40039 -0.719727 -4.67969 -0.719727 -7.12012c0.0830078 -70.5791 57.4307 -127.923 128.01 -128c12.8301 0 24.9805 2.46973 36.6807 6l29.5791 -23.29c-17.5654 -8.12012 -47.5283 -14.7109 -66.8809 -14.7109c-87.9834 0 -159.39 71.4072 -159.39 159.391
c0 0.167969 0 0.441406 0.000976562 0.610352c0.0625 8.45996 1.51465 22.0479 3.24023 30.3301zM320 32c35.1504 0 69.0596 7.16016 100.87 19.4297l29.25 -23c-34.1523 -15.6934 -92.374 -28.4297 -129.959 -28.4297h-0.161133c-122.93 0 -230.29 71.5898 -284.48 177.4
c-1.91992 3.79883 -3.47852 10.3379 -3.47852 14.5947s1.55859 10.7959 3.47852 14.5947c18.0605 35.25 42.4502 66.2197 70.9307 92.5l25.8594 -20.3701c-27.2197 -24 -50.8799 -52.7197 -68.3096 -86.7197c50.5303 -98.6904 148.64 -160 256 -160z" />
    <glyph glyph-name="exclamation-triangle" unicode="&#xf071;" horiz-adv-x="576" 
d="M270.2 288h35.5c3.39941 0 6.09961 -2.7998 6 -6.2002l-7.5 -196c-0.100586 -3.2002 -2.7998 -5.7998 -6 -5.7998h-20.5c-3.2002 0 -5.90039 2.5 -6 5.7998l-7.5 196c-0.100586 3.40039 2.59961 6.2002 6 6.2002zM288 60c15.5 0 28 -12.5 28 -28s-12.5 -28 -28 -28
s-28 12.5 -28 28s12.5 28 28 28zM569.5 8c18.5 -32 -4.7002 -72 -41.5 -72h-479.9c-37 0 -60 40.0996 -41.5996 72l239.9 416c18.5 32 64.7998 32 83.1992 0zM528 -32c12.2998 0 20 13.4004 13.7998 24l-240 416c-6.09961 10.7002 -21.5996 10.5996 -27.7002 0l-240 -416
c-6.09961 -10.7002 1.60059 -24 13.9004 -24h480z" />
    <glyph glyph-name="plane" unicode="&#xf072;" horiz-adv-x="576" 
d="M480 256c35.3496 0 96 -28.6504 96 -64s-60.6504 -64 -96 -64h-114.29l-105.11 -183.94c-2.84961 -4.97949 -8.14941 -8.05957 -13.8896 -8.05957h-88.3604c-10.6299 0 -18.2998 10.1797 -15.3799 20.4004l49.0303 171.6h-64l-43.2002 -57.5996
c-3.01953 -4.03027 -7.75977 -6.40039 -12.7998 -6.40039h-55.9902c-10.4102 0 -18.0498 9.78027 -15.5195 19.8799l31.5098 108.12l-31.5098 108.12c-2.53027 10.0996 5.10938 19.8799 15.5195 19.8799h55.9902c5.03027 0 9.78027 -2.37012 12.7998 -6.40039
l43.2002 -57.5996h64l-49.0303 171.61c-2.91992 10.2197 4.75 20.3896 15.3799 20.3896h88.3604h0.000976562c5.12598 0 11.3525 -3.61133 13.8994 -8.05957l105.1 -183.94h114.29zM480 160c26.2402 0 62.6104 21.75 64 32.0898
c-1.38965 10.1602 -37.7598 31.9102 -64 31.9102h-132.85l-109.71 192h-57.8701l54.8496 -192h-122.42l-48 64h-26.6699l28 -96l-27.9805 -96h26.6504l48 64h122.43l-54.8594 -192h57.8594l109.71 192h132.86z" />
    <glyph glyph-name="calendar-alt" unicode="&#xf073;" horiz-adv-x="448" 
d="M400 384c26.5 0 48 -21.5 48 -48v-352c0 -26.5 -21.5 -48 -48 -48h-352c-26.5 0 -48 21.5 -48 48v352c0 26.5 21.5 48 48 48h48v52c0 6.59961 5.40039 12 12 12h8c6.59961 0 12 -5.40039 12 -12v-52h192v52c0 6.59961 5.40039 12 12 12h8c6.59961 0 12 -5.40039 12 -12
v-52h48zM48 352c-8.7998 0 -16 -7.2002 -16 -16v-48h384v48c0 8.7998 -7.2002 16 -16 16h-352zM400 -32c8.7998 0 16 7.2002 16 16v272h-384v-272c0 -8.7998 7.2002 -16 16 -16h352zM148 128h-40c-6.59961 0 -12 5.40039 -12 12v40c0 6.59961 5.40039 12 12 12h40
c6.59961 0 12 -5.40039 12 -12v-40c0 -6.59961 -5.40039 -12 -12 -12zM244 128h-40c-6.59961 0 -12 5.40039 -12 12v40c0 6.59961 5.40039 12 12 12h40c6.59961 0 12 -5.40039 12 -12v-40c0 -6.59961 -5.40039 -12 -12 -12zM340 128h-40c-6.59961 0 -12 5.40039 -12 12v40
c0 6.59961 5.40039 12 12 12h40c6.59961 0 12 -5.40039 12 -12v-40c0 -6.59961 -5.40039 -12 -12 -12zM244 32h-40c-6.59961 0 -12 5.40039 -12 12v40c0 6.59961 5.40039 12 12 12h40c6.59961 0 12 -5.40039 12 -12v-40c0 -6.59961 -5.40039 -12 -12 -12zM148 32h-40
c-6.59961 0 -12 5.40039 -12 12v40c0 6.59961 5.40039 12 12 12h40c6.59961 0 12 -5.40039 12 -12v-40c0 -6.59961 -5.40039 -12 -12 -12zM340 32h-40c-6.59961 0 -12 5.40039 -12 12v40c0 6.59961 5.40039 12 12 12h40c6.59961 0 12 -5.40039 12 -12v-40
c0 -6.59961 -5.40039 -12 -12 -12z" />
    <glyph glyph-name="random" unicode="&#xf074;" 
d="M0 320v8c0 6.59961 5.40039 12 12 12h105.8c3.2998 0 6.5 -1.40039 8.7998 -3.90039l89.7002 -97l-21.7998 -23.5996l-85.5 92.5h-97c-6.59961 0 -12 5.40039 -12 12zM502.6 41.4004l-64 -64c-20.0996 -20.1006 -54.5996 -5.80078 -54.5996 22.5996v44h-25.7002
c-3.2998 0 -6.5 1.40039 -8.7998 3.90039l-89.7002 97l21.7998 23.5996l85.4004 -92.5h17v52c0 28.5 34.5 42.7002 54.5996 22.5996l64 -64c12.5 -12.5 12.5 -32.6992 0 -45.1992zM482.8 66.7998l-64 64c-2.5 2.5 -6.7998 0.700195 -6.7998 -2.7998v-128
c0 -3.59961 4.2998 -5.40039 6.7998 -2.7998l64 64c1.60059 1.5 1.60059 4.09961 0 5.59961zM502.6 297.4l-64 -64c-20.0996 -20.1006 -54.5996 -5.80078 -54.5996 22.5996v52h-17l-240.4 -260.1c-2.2998 -2.5 -5.5 -3.90039 -8.7998 -3.90039h-105.8
c-6.59961 0 -12 5.40039 -12 12v8c0 6.59961 5.40039 12 12 12h97l240.4 260.1c2.2998 2.5 5.5 3.90039 8.7998 3.90039h25.7998v44c0 28.5 34.5 42.7002 54.5996 22.5996l64 -64c12.5 -12.5 12.5 -32.6992 0 -45.1992zM482.8 322.8l-64 64
c-2.5 2.5 -6.7998 0.700195 -6.7998 -2.7998v-128c0 -3.59961 4.2998 -5.40039 6.7998 -2.7998l64 64c1.60059 1.5 1.60059 4.09961 0 5.59961z" />
    <glyph glyph-name="comment" unicode="&#xf075;" 
d="M256 384c-123.5 0 -224 -79 -224 -176c0 -37.5996 15.2998 -73.7002 44.2002 -104.3l13.7002 -14.6006l-7.10059 -18.6992c-11 -29.2002 -28.7998 -54.5 -40.7998 -69.6006c44.0996 4.2998 79.5996 23.2998 102.6 39.6006l13 9.19922l15.2002 -4.7998
c26.9004 -8.5 54.9004 -12.7998 83.2002 -12.7998c123.5 0 224 79 224 176s-100.5 176 -224 176zM256 416c141.4 0 256 -93.0996 256 -208s-114.6 -208 -256 -208c-32.7998 0 -64 5.2002 -93 14.2998c-29.0996 -20.5996 -77.5996 -46.2998 -139.1 -46.2998
c-9.60059 0 -18.2002 5.7002 -22 14.5c-3.80078 8.7998 -2 19 4.59961 26c0.5 0.400391 31.5 33.7998 46.4004 73.2002c-33 35.0996 -52.9004 78.7002 -52.9004 126.3c0 114.9 114.6 208 256 208z" />
    <glyph glyph-name="magnet" unicode="&#xf076;" 
d="M372 416h104c19.9004 0 36 -16.0996 36 -36v-189.3c0 -150.7 -134.5 -246.7 -255.2 -246.7c-120.6 0 -256.8 96 -256.8 246.7c0.700195 15.2998 1 39 1.09961 65.2998h-1.09961v32h1.09961c-0.0996094 33.2002 -0.399414 67.0996 -0.699219 91.5996
c-0.200195 20.1006 16 36.4004 36 36.4004h103.6c19.9004 0 36 -16.0996 36 -36v-172c0 -64 40.0996 -96 80.0996 -96c39.9004 0 79.9004 32 79.9004 96v172c0 19.9004 16.0996 36 36 36zM36.5 380c0.200195 -24.5996 0.5 -58.5996 0.599609 -92h102.9v92h-103.5zM476 189.9
c-0.700195 15.8994 -1 39.7998 -1.09961 66h-102.9v-48c0 -49.2002 -18.9004 -79.7002 -34.7002 -96.6006c-10.7002 -11.5 -23.3994 -20.3994 -37.7002 -26.5c-13.7998 -5.89941 -28.5 -8.89941 -43.5 -8.89941s-29.6992 3 -43.5 8.89941
c-14.2998 6.10059 -27 15 -37.7998 26.5c-15.8994 16.9004 -34.7998 47.4004 -34.7998 96.6006v48h-103.1c-0.100586 -26.4004 -0.400391 -50.2002 -1.10059 -66.1006c0.200195 -30.2998 6.7002 -59.0996 19.6006 -85.5996
c12.0996 -24.7998 29.2998 -47.1006 51.2998 -66.2998c20.7998 -18.1006 45.5996 -33 71.7998 -43c25.7002 -9.80078 52.7002 -15 78.2002 -15s52.3994 5.19922 77.8994 15c26 10 50.6006 24.7998 71.2002 42.8994c21.7998 19.1006 38.9004 41.4004 50.7998 66.2998
c12.8008 26.5 19.3008 55.4004 19.4004 85.8008zM372 288h102.9c0 33.4004 0.299805 67.4004 0.599609 92h-103.5v-92z" />
    <glyph glyph-name="chevron-up" unicode="&#xf077;" horiz-adv-x="448" 
d="M4.46484 81.5254c-4.68652 4.68555 -4.68652 12.2832 0 16.9697l211.049 211.051c4.6875 4.68652 12.2852 4.68652 16.9717 0l211.05 -211.051c4.68555 -4.68652 4.68555 -12.2842 0 -16.9697l-7.07031 -7.07129c-4.68652 -4.68652 -12.2852 -4.68652 -16.9707 0
l-195.494 195.493l-195.494 -195.493c-4.68652 -4.68652 -12.2852 -4.68652 -16.9707 0z" />
    <glyph glyph-name="chevron-down" unicode="&#xf078;" horiz-adv-x="448" 
d="M443.5 285.4c4.7002 -4.7002 4.7002 -12.3008 -0.0996094 -17l-211 -211.101c-4.7002 -4.7002 -12.3008 -4.7002 -17 0l-211 211.101c-4.7002 4.69922 -4.7002 12.2998 0 17l7.09961 7.09961c4.7002 4.7002 12.2998 4.7002 17 0l195.5 -195.5l195.4 195.5
c4.69922 4.7002 12.2998 4.7002 17 0z" />
    <glyph glyph-name="retweet" unicode="&#xf079;" horiz-adv-x="640" 
d="M634.828 84.2012l-98.3428 -98.3428c-4.68652 -4.68652 -12.2842 -4.68652 -16.9717 0l-98.3428 98.3428c-4.68555 4.68555 -4.68555 12.2842 0 16.9707l5.65625 5.65625c4.68555 4.68555 12.2842 4.68555 16.9707 0l68.2021 -68.2002v281.372h-251.976h-0.00195312
c-2.74316 0 -6.54395 1.5752 -8.4834 3.51465l-8 8c-7.56055 7.56055 -2.20605 20.4854 8.48535 20.4854h267.976c13.2549 0 24 -10.7451 24 -24v-289.372l68.2012 68.2012c4.68555 4.68555 12.2842 4.68555 16.9707 0l5.65625 -5.65625
c4.68555 -4.68652 4.68555 -12.2852 0 -16.9717zM388.461 60.4854l8 -8c7.56055 -7.55957 2.20605 -20.4854 -8.48535 -20.4854h-267.976c-13.2549 0 -24 10.7451 -24 24v289.372l-68.2012 -68.2012c-4.68555 -4.68555 -12.2842 -4.68555 -16.9697 0l-5.65723 5.65723
c-4.68555 4.68555 -4.68555 12.2852 0 16.9707l98.3418 98.3438c4.6875 4.68652 12.2852 4.68652 16.9717 0l98.3428 -98.3428c4.68652 -4.68652 4.68555 -12.2852 0 -16.9707l-5.65723 -5.65723c-4.68555 -4.68555 -12.2842 -4.68555 -16.9697 0l-68.2012 68.2002v-281.372
h251.976c2.74414 0 6.54492 -1.5752 8.48535 -3.51465z" />
    <glyph glyph-name="shopping-cart" unicode="&#xf07a;" horiz-adv-x="576" 
d="M551.991 384c15.2236 0 26.6006 -13.9912 23.4971 -28.8945l-43.3311 -208c-2.31934 -11.1299 -12.1279 -19.1055 -23.4961 -19.1055h-331.381l12 -64h296.048c11.4316 0 20.6943 -7.89062 23.2852 -18.1318c11.9531 -11.6279 19.3877 -27.875 19.3877 -45.8682
c0 -35.3457 -28.6543 -64 -64 -64s-64 28.6543 -64 64v0.0703125c0 9.44922 3.84473 23.7539 8.58301 31.9297h-145.167c4.73828 -8.17578 8.58301 -22.4805 8.58301 -31.9297v-0.0703125c0 -35.3457 -28.6543 -64 -64 -64s-64 28.6543 -64 64
c0 16.5801 6.30469 31.6855 16.6475 43.0537l-69.9277 372.946h-78.7197c-6.62695 0 -12 5.37305 -12 12v8c0 6.62695 5.37305 12 12 12h85.3623c11.5488 0 21.46 -8.22559 23.5889 -19.5771l8.3291 -44.4229h422.711zM240 0c0 17.6445 -14.3555 32 -32 32
s-32 -14.3555 -32 -32s14.3555 -32 32 -32s32 14.3555 32 32zM464 -32c17.6445 0 32 14.3555 32 32s-14.3555 32 -32 32s-32 -14.3555 -32 -32s14.3555 -32 32 -32zM502.156 160l40 192h-406.876l36 -192h330.876z" />
    <glyph glyph-name="folder" unicode="&#xf07b;" 
d="M194.74 352h-146.74c-8.83984 0 -16 -7.16016 -16 -16v-288c0 -8.83984 7.16016 -16 16 -16h416c8.83984 0 16 7.16016 16 16v224c0 8.83984 -7.16016 16 -16 16h-192c-8.49023 0 -16.6299 3.37012 -22.6299 9.37012zM48 384h146.74
c8.49023 0 16.6299 -3.37012 22.6299 -9.37012l54.6299 -54.6299h192c26.5098 0 48 -21.4902 48 -48v-224c0 -26.5098 -21.4902 -48 -48 -48h-416c-26.5098 0 -48 21.4902 -48 48v288c0 26.5098 21.4902 48 48 48z" />
    <glyph glyph-name="folder-open" unicode="&#xf07c;" horiz-adv-x="576" 
d="M527.95 224c37.335 0 60.29 -40.8115 41.1592 -72.6963l-67.4531 -112.464c-14.4639 -24.1064 -40.5312 -38.8398 -68.5996 -38.8398h-385.057c-26.5098 0 -48 21.4902 -48 48v288c0 26.5098 21.4902 48 48 48h160l64 -64h160c26.5098 0 48 -21.4902 48 -48v-48h47.9502z
M48 352c-8.83691 0 -16 -7.16309 -16 -16v-268.47l70.5781 117.63c14.4639 24.1064 40.5312 38.8398 68.5986 38.8398h276.823v48c0 8.83691 -7.16309 16 -16 16h-173.255l-64 64h-146.745zM541.695 167.768c6.39844 10.6641 -1.2832 24.2324 -13.7207 24.2324h-359.975v0
c-15.002 0 -33.4414 -10.4404 -41.1602 -23.3037l-82.0166 -136.696h388.233h0.00195312c15.001 0 33.4395 10.4404 41.1572 23.3037z" />
    <glyph glyph-name="arrows-v" unicode="&#xf07d;" horiz-adv-x="192" 
d="M181.415 48.041l7.07129 -7.07031c4.68555 -4.68555 4.68555 -12.2842 0 -16.9697l-84 -84.4854c-4.6875 -4.68652 -12.2852 -4.68652 -16.9717 0l-84 84.4854c-4.68555 4.68555 -4.68555 12.2842 0 16.9697l7.07031 7.07129c4.6875 4.68555 12.2852 4.68555 16.9707 0
l51.4443 -51.9277v391.772l-51.4443 -51.9277c-4.68652 -4.68555 -12.2842 -4.68555 -16.9707 0l-7.07031 7.07129c-4.68555 4.68555 -4.68555 12.2842 0 16.9697l83.999 84.4854c4.6875 4.68555 12.2852 4.68555 16.9717 0l84 -84.4854
c4.68555 -4.68555 4.68555 -12.2842 0 -16.9697l-7.07031 -7.07129c-4.6875 -4.68555 -12.2852 -4.68555 -16.9707 0l-51.4443 51.9277v-391.773l51.4443 51.9277c4.68652 4.68555 12.2842 4.68555 16.9707 0z" />
    <glyph glyph-name="arrows-h" unicode="&#xf07e;" 
d="M399.959 277.415l7.07031 7.07129c4.68555 4.68555 12.2842 4.68555 16.9697 0l84.4854 -84c4.68652 -4.6875 4.68652 -12.2852 0 -16.9717l-84.4854 -84c-4.68555 -4.68555 -12.2842 -4.68555 -16.9697 0l-7.07129 7.07031c-4.68555 4.6875 -4.68555 12.2852 0 16.9707
l51.9277 51.4443h-391.772l51.9277 -51.4453c4.68555 -4.68652 4.68555 -12.2852 0 -16.9707l-7.07129 -7.07031c-4.68555 -4.68555 -12.2842 -4.68555 -16.9697 0l-84.4854 84c-4.68555 4.6875 -4.68555 12.2852 0 16.9717l84.4854 84
c4.68555 4.68555 12.2842 4.68555 16.9697 0l7.07129 -7.07031c4.68555 -4.6875 4.68555 -12.2852 0 -16.9707l-51.9277 -51.4443h391.773l-51.9277 51.4443c-4.68555 4.68652 -4.68555 12.2842 0 16.9707z" />
    <glyph glyph-name="chart-bar" unicode="&#xf080;" 
d="M424 96c-4.40039 0 -8 3.59961 -8 8v240c0 4.40039 3.59961 8 8 8h16c4.40039 0 8 -3.59961 8 -8v-240c0 -4.40039 -3.59961 -8 -8 -8h-16zM328 96c-4.40039 0 -8 3.59961 -8 8v144c0 4.40039 3.59961 8 8 8h16c4.40039 0 8 -3.59961 8 -8v-144
c0 -4.40039 -3.59961 -8 -8 -8h-16zM136 96c-4.40039 0 -8 3.59961 -8 8v80c0 4.40039 3.59961 8 8 8h16c4.40039 0 8 -3.59961 8 -8v-80c0 -4.40039 -3.59961 -8 -8 -8h-16zM232 96c-4.40039 0 -8 3.59961 -8 8v208c0 4.40039 3.59961 8 8 8h16c4.40039 0 8 -3.59961 8 -8
v-208c0 -4.40039 -3.59961 -8 -8 -8h-16zM504 32c4.41992 0 8 -3.58008 8 -8v-16c0 -4.41992 -3.58008 -8 -8 -8h-488c-8.83984 0 -16 7.16016 -16 16v360c0 4.41992 3.58008 8 8 8h16c4.41992 0 8 -3.58008 8 -8v-344h472z" />
    <glyph glyph-name="camera-retro" unicode="&#xf083;" 
d="M32 390v20c0 3.2998 2.7002 6 6 6h116c3.2998 0 6 -2.7002 6 -6v-20c0 -3.2998 -2.7002 -6 -6 -6h-116c-3.2998 0 -6 2.7002 -6 6zM376 160c0 -66.2002 -53.7998 -120 -120 -120s-120 53.7998 -120 120s53.7998 120 120 120s120 -53.7998 120 -120zM344 160
c0 48.5 -39.5 88 -88 88s-88 -39.5 -88 -88s39.5 -88 88 -88s88 39.5 88 88zM224 160c0 -8.7998 -7.2002 -16 -16 -16s-16 7.2002 -16 16c0 35.2998 28.7002 64 64 64c8.7998 0 16 -7.2002 16 -16s-7.2002 -16 -16 -16c-17.5996 0 -32 -14.4004 -32 -32zM512 368v-352
c0 -26.5 -21.5 -48 -48 -48h-416c-26.5 0 -48 21.5 -48 48v288c0 26.5 21.5 48 48 48h136l33.5996 44.7998c9.10059 12.1006 23.3008 19.2002 38.4004 19.2002h208c26.5 0 48 -21.5 48 -48zM224 352h240c5.59961 0 11 -1 16 -2.7002v18.7002c0 8.7998 -7.2002 16 -16 16
h-208c-5 0 -9.7998 -2.40039 -12.7998 -6.40039zM480 304c0 8.7998 -7.2002 16 -16 16h-416c-8.7998 0 -16 -7.2002 -16 -16v-288c0 -8.7998 7.2002 -16 16 -16h416c8.7998 0 16 7.2002 16 16v288z" />
    <glyph glyph-name="key" unicode="&#xf084;" 
d="M336 416c-79.5293 0 -144 -64.4707 -144 -144c0 -18.9678 3.6748 -37.0762 10.3389 -53.6611l-170.339 -170.339v-80h96v64h64v64h48l42.3389 42.3389c16.585 -6.66406 34.6934 -10.3389 53.6611 -10.3389c79.5293 0 144 64.4707 144 144s-64.4707 144 -144 144zM336 448
c97.2314 0 176 -78.8164 176 -176c0 -97.2314 -78.8164 -176 -176 -176c-15.3066 0 -30.3516 1.94531 -44.9463 5.79785l-30.7686 -30.7686c-4.50098 -4.5 -10.6064 -7.0293 -16.9707 -7.0293h-19.3145v-40c0 -13.2549 -10.7451 -24 -24 -24h-40v-40
c0 -13.2549 -10.7451 -24 -24 -24h-112c-13.2549 0 -24 10.7451 -24 24v91.3145c0 5.48633 3.14941 13.0889 7.0293 16.9697l158.769 158.769c-3.85254 14.5957 -5.79785 29.6406 -5.79785 44.9473c0 97.2314 78.8164 176 176 176zM384 340c-11.0283 0 -20 -8.97168 -20 -20
s8.97168 -20 20 -20s20 8.97168 20 20s-8.97168 20 -20 20zM384 368c26.5098 0 48 -21.4902 48 -48s-21.4902 -48 -48 -48s-48 21.4902 -48 48s21.4902 48 48 48z" />
    <glyph glyph-name="cogs" unicode="&#xf085;" horiz-adv-x="640" 
d="M538.6 251.6l-2.5 3.90039c-4.09961 -0.299805 -8.09961 -0.299805 -12.1992 0l-2.5 -4c-5.80078 -9.2002 -17.1006 -13.4004 -27.5 -10.0996c-13.8008 4.2998 -23 8.7998 -34.3008 18.0996c-9 7.40039 -11.1992 20.2998 -5.39941 30.4004l2.5 4.2998
c-2.2998 3.39941 -4.2998 6.89941 -6.10059 10.5996h-9.09961c-11.5996 0 -21.4004 8.2002 -23.5996 19.6006c-2.60059 13.6992 -2.7002 24.1992 0.0996094 38.5c2.09961 11.2998 12.0996 19.5 23.5996 19.5h9c1.80078 3.69922 3.80078 7.19922 6.10059 10.5996
l-2.60059 4.5c-5.7998 10 -3.59961 22.7002 5.2002 30.2998c10.6006 9.10059 19.7002 14.2998 33.5 19c10.7998 3.7002 22.7002 -0.700195 28.5 -10.5996l2.60059 -4.40039c4.09961 0.299805 8.09961 0.299805 12.1992 0l2.60059 4.40039
c5.7998 9.89941 17.7002 14.2998 28.5996 10.5c13.2998 -4.5 22.2998 -9.60059 33.5 -19.1006c8.7998 -7.5 10.9004 -20.1992 5.10059 -30.1992l-2.60059 -4.40039c2.2998 -3.40039 4.2998 -6.90039 6.10059 -10.5996h5.09961c11.5996 0 21.4004 -8.2002 23.5996 -19.6006
c2.60059 -13.7002 2.7002 -24.2002 -0.0996094 -38.5c-2.09961 -11.2998 -12.0996 -19.5 -23.5996 -19.5h-5c-1.80078 -3.7002 -3.80078 -7.2002 -6.10059 -10.5996l2.5 -4.2998c5.90039 -10.2002 3.5 -23.1006 -5.5 -30.5
c-10.7002 -8.80078 -19.8994 -13.4004 -34 -17.9004c-10.5 -3.2998 -21.8994 0.799805 -27.7002 10.0996zM550.8 286.1l10.6006 -18.2998c6.69922 2.7998 12.8994 6.40039 18.6992 10.7998l-10.5996 18.3008l6.40039 7.5c4.7998 5.69922 8.59961 12.0996 11 19.0996
l3.2998 9.2998h21.0996c0.900391 7.10059 0.900391 14.4004 0 21.5h-21.0996l-3.2998 9.2998c-2.5 7 -6.2002 13.4004 -11 19.1006l-6.40039 7.5l10.5 18.3994c-5.7002 4.40039 -12 8 -18.7002 10.8008l-10.5996 -18.3008l-9.7002 1.80078
c-7.2998 1.39941 -14.7998 1.39941 -22.0996 0l-9.7002 -1.80078l-10.6006 18.3008c-6.59961 -2.7002 -12.8994 -6.40039 -18.5996 -10.8008l10.5996 -18.2998l-6.39941 -7.5c-4.7998 -5.7002 -8.60059 -12.0996 -11 -19.0996l-3.2998 -9.2998h-21.1006
c-0.899414 -7.10059 -0.899414 -14.4004 0 -21.5h21.1006l3.2998 -9.30078c2.5 -7 6.2002 -13.3994 11 -19.0996l6.39941 -7.5l-10.5996 -18.4004c5.7002 -4.39941 12 -8 18.7002 -10.7998l10.5996 18.2998l9.7002 -1.7998c7.2998 -1.39941 14.7998 -1.39941 22.0996 0z
M145.3 -6.40039v31.6006c-12.8994 5.5 -25.0996 12.5996 -36.3994 21.0996l-27.5 -15.8994c-9.80078 -5.60059 -22.1006 -3.7002 -29.7002 4.59961c-24.2002 26.2998 -38.5 49.5 -50.6006 88.0996c-3.39941 10.7002 1.10059 22.3008 10.8008 28l27.2998 15.9004
c-1.7002 14 -1.7002 28.0996 0 42.0996l-27.2998 15.8008c-9.7002 5.59961 -14.2002 17.2998 -10.8008 28c12.1006 38.3994 26.2002 61.5996 50.6006 88.0996c7.59961 8.2998 20 10.2002 29.7002 4.59961l27.3994 -15.8994c11.2998 8.5 23.5 15.5 36.4004 21.0996v31.6006
c0 11.2998 7.7998 21 18.7998 23.3994c34.7002 7.7998 62 8.7002 101.7 0c11 -2.39941 18.8994 -12.2002 18.8994 -23.3994v-31.6006c12.9004 -5.5 25.1006 -12.5996 36.4004 -21l27.4004 15.7998c9.7998 5.60059 22.1992 3.7002 29.7998 -4.59961
c26.8994 -29.5996 41.5 -55.9004 52.0996 -88.5c3.40039 -10.5 -0.799805 -21.9004 -10.2002 -27.7002l-25 -15.7998c1.7002 -14 1.7002 -28.0996 0 -42.0996l28.1006 -17.5c8.59961 -5.40039 13 -15.6006 10.7998 -25.5c-6.90039 -31.3008 -33 -64.6006 -55.9004 -89.2002
c-7.59961 -8.2002 -19.8994 -10 -29.5996 -4.40039l-27.5 15.9004c-11.2998 -8.5 -23.5 -15.5 -36.4004 -21.1006v-31.5996c0 -11.2002 -7.7998 -21 -18.7998 -23.4004c-37.5 -8.2998 -64.8994 -8.19922 -101.899 0c-10.8008 2.5 -18.6006 12.3008 -18.6006 23.5z
M177.3 -0.200195c24.7998 -5 50.5 -5 75.2998 0v47.7002l10.7002 3.7998c16.7998 5.90039 32.2998 14.9004 45.9004 26.5l8.59961 7.40039l41.4004 -23.9004c16.7998 19.1006 34 41.2998 42.0996 65.2002l-41.3994 23.9004l2.09961 11.0996
c3.2002 17.5996 3.2002 35.5 0 53.0996l-2.09961 11.1006l41.3994 23.8994c-8.09961 23.9004 -25.2998 46.2002 -42.0996 65.2002l-41.4004 -23.8994l-8.59961 7.39941c-13.6006 11.7002 -29 20.6006 -45.9004 26.5l-10.7002 3.7998v47.6006c-24.7998 5 -50.5 5 -75.2998 0
v-47.7002l-10.7002 -3.7998c-16.7998 -5.90039 -32.2998 -14.9004 -45.8994 -26.5l-8.60059 -7.40039l-41.3994 23.9004c-14.001 -15.916 -30.8906 -45.126 -37.7002 -65.2002l41.4004 -23.9004l-2.10059 -11.0996c-3.2002 -17.5996 -3.2002 -35.5 0 -53.0996
l2.10059 -11.1006l-41.4004 -23.8994c8.09961 -23.9004 20.9004 -46.2002 37.7002 -65.2002l41.3994 23.8994l8.60059 -7.39941c13.5996 -11.7002 29 -20.6006 45.8994 -26.5l10.7002 -3.7998v-47.6006zM215.7 105.1c-45.7002 0 -82.9004 37.2002 -82.9004 82.9004
s37.2002 82.9004 82.9004 82.9004s82.8994 -37.2002 82.8994 -82.9004s-37.1992 -82.9004 -82.8994 -82.9004zM215.7 238.9c-28 0 -50.9004 -22.8008 -50.9004 -50.9004s22.7998 -50.9004 50.9004 -50.9004c28 0 50.8994 22.8008 50.8994 50.9004
s-22.7998 50.9004 -50.8994 50.9004zM538.6 -52.7998l-2.5 3.89941c-4.09961 -0.299805 -8.09961 -0.299805 -12.1992 0l-2.5 -4c-5.80078 -9.19922 -17.1006 -13.3994 -27.5 -10.0996c-13.8008 4.2998 -23 8.7998 -34.3008 18.0996
c-9 7.40039 -11.1992 20.3008 -5.39941 30.4004l2.5 4.2998c-2.2998 3.40039 -4.2998 6.90039 -6.10059 10.6006h-9.09961c-11.5996 0 -21.4004 8.19922 -23.5996 19.5996c-2.60059 13.7002 -2.7002 24.2002 0.0996094 38.5c2.09961 11.2998 12.0996 19.5 23.5996 19.5h9
c1.80078 3.7002 3.80078 7.2002 6.10059 10.5996l-2.60059 4.5c-5.7998 10 -3.59961 22.7002 5.2002 30.3008c10.6006 9.09961 19.7002 14.2998 33.5 19c10.7998 3.69922 22.7002 -0.700195 28.5 -10.6006l2.60059 -4.39941c4.09961 0.299805 8.09961 0.299805 12.1992 0
l2.60059 4.39941c5.7998 9.90039 17.7002 14.2998 28.5996 10.5c13.2998 -4.5 22.2998 -9.59961 33.5 -19.0996c8.7998 -7.5 10.9004 -20.2002 5.10059 -30.2002l-2.60059 -4.40039c2.2998 -3.39941 4.2998 -6.89941 6.10059 -10.5996h5.09961
c11.5996 0 21.4004 -8.2002 23.5996 -19.5996c2.60059 -13.7002 2.7002 -24.2002 -0.0996094 -38.5c-2.09961 -11.3008 -12.0996 -19.5 -23.5996 -19.5h-5c-1.80078 -3.7002 -3.80078 -7.2002 -6.10059 -10.6006l2.5 -4.2998c5.90039 -10.2002 3.5 -23.0996 -5.5 -30.5
c-10.7002 -8.7998 -19.8994 -13.4004 -34 -17.9004c-10.5 -3.19922 -21.8994 0.900391 -27.7002 10.1006zM550.8 -18.2002l10.6006 -18.2998c6.69922 2.7998 12.8994 6.40039 18.6992 10.7998l-10.5996 18.2998l6.40039 7.5c4.7998 5.7002 8.59961 12.1006 11 19.1006
l3.2998 9.2998h21.0996c0.900391 7.09961 0.900391 14.4004 0 21.5h-21.0996l-3.2998 9.2998c-2.5 7 -6.2002 13.4004 -11 19.1006l-6.40039 7.5l10.5996 18.2998c-5.69922 4.39941 -12 8 -18.6992 10.7998l-10.6006 -18.2998l-9.7002 1.7998
c-7.2998 1.40039 -14.7998 1.40039 -22.0996 0l-9.7002 -1.7998l-10.5996 18.2998c-6.7002 -2.7998 -12.9004 -6.40039 -18.7002 -10.7998l10.5996 -18.2998l-6.39941 -7.5c-4.7998 -5.7002 -8.60059 -12.1006 -11 -19.1006l-3.2998 -9.2998h-21.1006
c-0.899414 -7.09961 -0.899414 -14.4004 0 -21.5h21.1006l3.2998 -9.2998c2.5 -7 6.2002 -13.4004 11 -19.1006l6.39941 -7.5l-10.5996 -18.2998c5.7002 -4.39941 12 -8 18.7002 -10.7998l10.5996 18.2998l9.7002 -1.7998c7.2998 -1.40039 14.7998 -1.40039 22.0996 0z
M560 40c0 -17.7002 -14.2998 -32 -32 -32s-32 14.2998 -32 32s14.2998 32 32 32s32 -14.2998 32 -32zM560 344.3c0 -17.5996 -14.2998 -32 -32 -32s-32 14.2998 -32 32s14.2998 32 32 32s32 -14.2998 32 -32z" />
    <glyph glyph-name="comments" unicode="&#xf086;" horiz-adv-x="576" 
d="M569.9 6.90039c6.2998 -6.7002 8 -16.5 4.39941 -25c-3.7002 -8.5 -12 -14 -21.2002 -14c-53.5996 0 -96.6992 20.2998 -125.199 38.7998c-19 -4.40039 -39 -6.7998 -59.8008 -6.7998c-86.2998 0 -160.3 40.5 -191.8 98c-9.59961 1.09961 -18.8994 2.69922 -28 4.7998
c-28.5 -18.6006 -71.7002 -38.7998 -125.2 -38.7998c-9.19922 0 -17.5996 5.5 -21.1992 14c-3.7002 8.5 -1.90039 18.2998 4.39941 25c0.400391 0.399414 22.4004 24.1992 37.7002 54.8994c-27.5 27.2002 -44 61.2002 -44 98.2002c0 88.4004 93.0996 160 208 160
c86.2998 0 160.4 -40.5 191.8 -98.0996c99.7002 -11.8008 176.2 -77.9004 176.2 -157.9c0 -37.0996 -16.5 -71.0996 -44 -98.2002c15.2998 -30.7002 37.4004 -54.5 37.9004 -54.8994zM155.4 134c17.1992 -4 34.8994 -6 52.5996 -6c97 0 176 57.4004 176 128
s-79 128 -176 128s-176 -57.4004 -176 -128c0 -34.2002 18.7002 -59.9004 34.5 -75.4004l16.5 -16.2998l-10.4004 -20.7998c-9.2998 -18.7998 -20.6992 -35.0996 -29.5 -46.4004c37.2002 4.30078 67.6006 19.4004 87.7002 32.5l11.4004 7.40039zM445.2 33.5996
c20.0996 -13 50.5 -28.1992 87.5996 -32.3994c-8.7002 11.2002 -20.0996 27.5 -29.5 46.3994l-10.2998 20.7002l16.5 16.2998c15.7998 15.5 34.5 41.2002 34.5 75.4004c0 59.2998 -55.9004 109.2 -131.3 123.7c2 -9 3.2998 -18.2002 3.2998 -27.7002
c0 -86.4004 -89.0996 -156.6 -200.4 -159.8c30.4004 -38.4004 87.3008 -64.2998 152.4 -64.2998c17.7002 0 35.4004 2 52.5996 6l13.2002 3.09961z" />
    <glyph glyph-name="star-half" unicode="&#xf089;" horiz-adv-x="576" 
d="M288 44.5996v-36.1992l-130.7 -68.6006c-23.3994 -12.2998 -50.8994 7.60059 -46.3994 33.7002l25 145.5l-105.7 103c-19 18.5 -8.5 50.7998 17.7002 54.5996l146.1 21.2002l65.2998 132.4c5.90039 11.8994 17.2998 17.7998 28.7002 17.7998v-32l-72.7998 -147.5
l-162.7 -23.5996l117.8 -114.801l-27.7998 -162z" />
    <glyph glyph-name="sign-out" unicode="&#xf08b;" 
d="M48 384h132c6.59961 0 12 -5.40039 12 -12v-8c0 -6.59961 -5.40039 -12 -12 -12h-132c-8.7998 0 -16 -7.2002 -16 -16v-288c0 -8.7998 7.2002 -16 16 -16h132c6.59961 0 12 -5.40039 12 -12v-8c0 -6.59961 -5.40039 -12 -12 -12h-132c-26.5 0 -48 21.5 -48 48v288
c0 26.5 21.5 48 48 48zM327 364.5c4.7002 4.7002 12.2998 4.7002 17 0l164.6 -164c4.7002 -4.7002 4.7002 -12.2998 0 -17l-164.5 -164c-4.69922 -4.7002 -12.2998 -4.7002 -17 0l-7.09961 7.09961c-4.7002 4.7002 -4.7002 12.3008 0 17l131.9 131.4h-279.9
c-6.59961 0 -12 5.40039 -12 12v10c0 6.59961 5.40039 12 12 12h279.9l-132 131.4c-4.7002 4.69922 -4.7002 12.2998 0 17z" />
    <glyph glyph-name="thumbtack" unicode="&#xf08d;" horiz-adv-x="384" 
d="M300.8 244.1c48.2998 -27.5996 83.2002 -74.5 83.1006 -131.3c0 -8.7998 -7.2002 -16 -16 -16h-160v-120.8c0 -0.599609 0 -1.2998 -0.200195 -1.90039l-8 -32c-2 -8.09961 -13.5 -8 -15.5 0l-8 32c-0.100586 0.600586 -0.200195 1.2002 -0.200195 1.90039v120.8h-160
c-8.7998 0 -16 7.2002 -16 16c0 56.7998 34.9004 103.7 83.2002 131.3l10.0996 75.9004h-37.2998c-13.2002 0 -24 10.7998 -24 24v80c0 13.2002 10.7998 24 24 24h272c13.2002 0 24 -10.7998 24 -24v-80c0 -13.2002 -10.7998 -24 -24 -24h-37.2998zM33.2998 128.8
v-0.0996094h317.5c-6.7998 42.7002 -39.5 76.2998 -79.5 94.5l-15.2998 128.8h64v64h-256v-64h64l-15.2002 -128.7c-39.8994 -18.0996 -72.7002 -51.5996 -79.5 -94.5z" />
    <glyph glyph-name="external-link" unicode="&#xf08e;" horiz-adv-x="576" 
d="M195.515 73.1719c-4.68555 4.68652 -4.68555 12.2842 0 16.9707l323.15 323.15l-0.707031 0.707031l-89.958 -0.341797c-6.62695 0 -12 5.37305 -12 12v9.99902c0 6.62793 5.37207 12 12 12l136 0.342773c6.62695 0 12 -5.37207 12 -12l-0.342773 -136
c0 -6.62695 -5.37305 -12 -12 -12h-9.99902c-6.62695 0 -12 5.37305 -12 12l0.341797 89.958l-0.707031 0.707031l-323.15 -323.15c-4.68555 -4.68555 -12.2832 -4.68555 -16.9707 0zM427.515 228.805c7.55957 7.55957 20.4854 2.20508 20.4854 -8.48535v-236.319
c0 -26.5098 -21.4902 -48 -48 -48h-352c-26.5098 0 -48 21.4902 -48 48v352c0 26.5098 21.4902 48 48 48h347.976c10.6914 0 16.0459 -12.9248 8.48535 -20.4854l-8 -8c-2.25 -2.25098 -5.30176 -3.51465 -8.48535 -3.51465h-339.976c-8.83594 0 -16 -7.16309 -16 -16v-352
c0 -8.83691 7.16406 -16 16 -16h352c8.83594 0 16 7.16309 16 16v228.32c0 2.74316 1.5752 6.54492 3.51465 8.48438z" />
    <glyph glyph-name="sign-in" unicode="&#xf090;" 
d="M184 364.5l164.5 -164c4.7002 -4.7002 4.7002 -12.2998 0 -17l-164.5 -164c-4.7002 -4.7002 -12.2998 -4.7002 -17 0l-7.09961 7.09961c-4.7002 4.7002 -4.7002 12.3008 0 17l132 131.4h-279.9c-6.59961 0 -12 5.40039 -12 12v10c0 6.59961 5.40039 12 12 12h279.9
l-131.9 131.4c-4.7002 4.69922 -4.7002 12.2998 0 17l7.09961 7.09961c4.60059 4.7002 12.2002 4.7002 16.9004 0zM512 48c0 -26.5 -21.5 -48 -48 -48h-132c-6.59961 0 -12 5.40039 -12 12v8c0 6.59961 5.40039 12 12 12h132c8.7998 0 16 7.2002 16 16v288
c0 8.7998 -7.2002 16 -16 16h-132c-6.59961 0 -12 5.40039 -12 12v8c0 6.59961 5.40039 12 12 12h132c26.5 0 48 -21.5 48 -48v-288z" />
    </font>
</defs>
</svg>
